<?xml version="1.0" standalone="no"?>
<!DOCTYPE svg PUBLIC "-//W3C//DTD SVG 1.1//EN" "http://www.w3.org/Graphics/SVG/1.1/DTD/svg11.dtd" >
<svg xmlns="http://www.w3.org/2000/svg">
<metadata>
This is a custom SVG webfont generated by Font Squirrel.
Copyright   : Copyright c 2011 Pablo Impallari wwwimpallaricomimpallarigmailcomCopyright c 2011 Igino Marini wwwikerncommailiginomarinicomCopyright c 2011 Brenda Gallo gbrenda1987gmailcomwith Reserved Font Name Quattrocento Sans
Designer    : Pablo Impallari
Foundry     : Pablo Impallari Igino Marini Brenda Gallo
Foundry URL : wwwimpallaricom
</metadata>
<defs>
<font id="QuattrocentoSansBold" horiz-adv-x="1103" >
<font-face units-per-em="2048" ascent="1638" descent="-410" />
<missing-glyph horiz-adv-x="501" />
<glyph unicode=" "  horiz-adv-x="501" />
<glyph unicode="&#x09;" horiz-adv-x="501" />
<glyph unicode="&#xa0;" horiz-adv-x="501" />
<glyph unicode="!" horiz-adv-x="552" d="M127 121q0 57 43 99t102 42t104.5 -42t45.5 -101t-46 -101.5t-106 -42.5q-59 0 -101 43.5t-42 102.5zM137 1397h281l-53 -1028h-179z" />
<glyph unicode="&#x22;" horiz-adv-x="770" d="M102 1499h248l-49 -442h-156zM424 1499h248l-49 -442h-156z" />
<glyph unicode="#" horiz-adv-x="1263" d="M74 424l35 170h198l39 182h-209l33 168h213l84 395h213l-84 -395h176l84 395h213l-84 -395h207l-33 -168h-211l-39 -182h221l-34 -170h-222l-90 -424h-213l91 424h-177l-90 -424h-213l90 424h-198zM520 594h176l39 182h-176z" />
<glyph unicode="$" horiz-adv-x="1060" d="M74 88l59 211q66 -51 146.5 -85t181.5 -42v428q-59 20 -120.5 48t-113 73t-84 114.5t-32.5 172.5q0 88 26.5 152.5t73.5 105.5t110.5 63.5t139.5 28.5v178h164v-180q84 -8 158.5 -27.5t129.5 -44.5l-55 -217q-49 33 -111.5 55.5t-121.5 34.5v-356q68 -27 132 -60.5 t115.5 -83t82 -119t30.5 -167.5q0 -92 -28.5 -161t-78 -115t-115 -73.5t-138.5 -37.5v-181h-164v174q-117 6 -216 38t-171 73zM328 1024q0 -59 35.5 -95t97.5 -65v297q-61 -10 -97 -44t-36 -93zM625 186q70 18 102.5 60.5t32.5 99.5q0 70 -41 115t-94 74v-349z" />
<glyph unicode="%" horiz-adv-x="1716" d="M74 977q0 80 21.5 150.5t63.5 123t101 82t135 29.5t135.5 -31t101.5 -82t63.5 -119.5t21.5 -144.5q0 -74 -21.5 -143.5t-63.5 -122.5t-103.5 -85t-141.5 -32q-78 0 -136 30t-98 81t-59.5 119.5t-19.5 144.5zM250 989q0 -127 37 -190.5t102 -63.5q41 0 69.5 19.5t47 53.5 t28 78t9.5 95q0 111 -37 179.5t-115 68.5t-109.5 -68t-31.5 -172zM289 -49l948 1464h184l-948 -1464h-184zM1001 365q0 80 21.5 150.5t63.5 122.5t101.5 82t135.5 30t135.5 -31t101.5 -82t63.5 -119.5t21.5 -144.5q0 -74 -21.5 -143.5t-63.5 -123t-103.5 -85t-141.5 -31.5 q-78 0 -136.5 29.5t-98.5 81t-59.5 120t-19.5 144.5zM1178 377q0 -127 36.5 -190.5t102.5 -63.5q41 0 69.5 19.5t47 53t27.5 77.5t9 96q0 111 -36.5 179t-114.5 68t-109.5 -67.5t-31.5 -171.5z" />
<glyph unicode="&#x26;" horiz-adv-x="1443" d="M109 360q0 55 17 113.5t51 112t86 98.5t120 74q-59 70 -92 139.5t-33 159.5q0 76 23.5 132t65.5 95t97.5 58.5t116.5 19.5q70 0 146.5 -23.5t146.5 -66.5l-57 -197q-18 16 -45 33.5t-56.5 31t-60.5 22.5t-57 9q-49 0 -83 -32.5t-34 -98.5t37 -118t90 -107l352 -364 q2 10 3 22t1 25q0 47 -15.5 101t-54.5 110l-100 -7v127l594 76v-157l-295 -23q66 -115 66 -244q0 -100 -41 -194l278 -287h-254l-129 133q-72 -72 -176 -115t-239 -43q-115 0 -203 32t-147.5 86t-89 123.5t-29.5 143.5zM346 389q0 -111 70.5 -164t179.5 -53q82 0 147.5 27.5 t110.5 74.5l-348 355q-39 -10 -68.5 -35t-50 -56.5t-31 -70.5t-10.5 -78z" />
<glyph unicode="'" horiz-adv-x="448" d="M102 1499h248l-49 -442h-156z" />
<glyph unicode="(" horiz-adv-x="669" d="M84 670q0 262 108.5 495.5t305.5 413.5l139 -51q-78 -92 -135.5 -187.5t-94 -200t-54 -221t-17.5 -251.5q0 -80 9 -178.5t40 -209t90.5 -229.5t159.5 -239l-137 -52q-197 176 -305.5 412t-108.5 498z" />
<glyph unicode=")" horiz-adv-x="669" d="M33 1528l139 51q197 -180 305.5 -413.5t108.5 -495.5t-108.5 -497.5t-305.5 -412.5l-137 52q100 121 159.5 239.5t90 229t40 209t9.5 178.5q0 135 -17.5 251.5t-54.5 221t-94 200t-135 187.5z" />
<glyph unicode="*" horiz-adv-x="901" d="M106 1024l244 78l-244 78l107 182l188 -178l-55 254h209l-55 -254l188 178l107 -182l-246 -78l246 -78l-107 -182l-190 176l57 -252h-209l55 252l-188 -176z" />
<glyph unicode="+" horiz-adv-x="997" d="M94 406v167h309v301h189v-301h311v-167h-311v-322h-189v322h-309z" />
<glyph unicode="," horiz-adv-x="534" d="M104 -242l93 232h-52v280h244v-311l-211 -252z" />
<glyph unicode="-" horiz-adv-x="958" d="M133 406v167h692v-167h-692z" />
<glyph unicode="." horiz-adv-x="522" d="M115 121q0 29 11 55.5t31.5 48t46 33.5t56.5 12q29 0 55.5 -12t48 -33.5t34 -48t12.5 -55.5q0 -31 -12.5 -56.5t-34 -46t-48 -32t-55.5 -11.5q-59 0 -102 43.5t-43 102.5z" />
<glyph unicode="/" horiz-adv-x="923" d="M59 -117l570 1555h235l-569 -1555h-236z" />
<glyph unicode="0" horiz-adv-x="1300" d="M106 659q0 145 37 273.5t106.5 223.5t171 150.5t230.5 55.5q131 0 232.5 -56.5t171 -150.5t105.5 -218t36 -261t-37 -263t-107.5 -223.5t-175 -156t-239.5 -58.5q-133 0 -232.5 55.5t-165 149.5t-99.5 218t-34 261zM358 674q0 -248 75 -375t212 -127q78 0 134.5 38 t93 105.5t55 159.5t18.5 199q0 109 -18.5 199t-56 155.5t-95 101t-133.5 35.5t-130 -35.5t-88 -100t-50.5 -155.5t-16.5 -200z" />
<glyph unicode="1" horiz-adv-x="681" d="M55 1126l447 226v-1352h-236v995l-166 -73z" />
<glyph unicode="2" horiz-adv-x="1032" d="M96 0v205q80 109 181.5 214t190.5 205.5t150.5 197t61.5 188.5q0 88 -57.5 124.5t-149.5 36.5q-88 0 -173 -27.5t-150 -64.5l-48 176q39 20 89.5 40t104.5 35.5t109.5 23.5t108.5 8q86 0 160 -23.5t126 -67.5t81.5 -106.5t29.5 -138.5q0 -104 -52 -207.5t-131 -207 t-173 -205t-176 -201.5h547v-205h-830z" />
<glyph unicode="3" horiz-adv-x="1083" d="M61 115l58 186q72 -59 160 -94t188 -35q129 0 195.5 60.5t66.5 177.5q0 104 -60.5 164.5t-201.5 60.5h-55v178h63q90 0 139.5 57.5t49.5 151.5q0 84 -51.5 118t-123.5 34q-39 0 -80.5 -8.5t-80.5 -24t-73 -35t-58 -41.5l-54 188q78 47 179.5 78t201.5 31q86 0 158 -24.5 t124 -68.5t80.5 -105.5t28.5 -135.5q0 -109 -55 -177.5t-139 -115.5q123 -41 191.5 -123t68.5 -215q0 -86 -30.5 -162.5t-94 -134t-158 -91.5t-219.5 -34q-254 1 -418 140z" />
<glyph unicode="4" horiz-adv-x="1101" d="M53 389v184l572 779h245v-779h142v-184h-142v-389h-235v389h-582zM285 573h350v496z" />
<glyph unicode="5" horiz-adv-x="1087" d="M76 113l59 194q31 -29 71 -52.5t86 -40.5t94 -27.5t95 -10.5q51 0 99.5 13.5t84 42t57 74.5t21.5 112q0 49 -12 90t-40.5 69.5t-77 45t-121.5 16.5q-63 0 -139.5 -12.5t-143.5 -38.5l-59 30l79 744h695v-215h-504l-31 -324q43 12 90 17.5t86 5.5q94 0 172 -27.5 t135.5 -81t89 -130.5t31.5 -175q0 -94 -30.5 -177t-93 -145.5t-157 -98.5t-220.5 -36q-125 0 -230.5 36t-185.5 102z" />
<glyph unicode="6" d="M115 614q0 139 23.5 273.5t82 239t155.5 169t242 64.5q37 0 82 -5t91.5 -17.5t89.5 -33t73 -51.5l-51 -180q-68 51 -143.5 71.5t-132.5 20.5q-86 0 -143.5 -37.5t-91.5 -99t-47 -137.5t-13 -152v-29q0 -13 2 -30l6 -2q35 74 107.5 108.5t170.5 34.5q117 0 193 -43 t121 -106.5t62.5 -136t17.5 -134.5q0 -74 -23.5 -149.5t-76 -137t-136.5 -100.5t-203 -39q-127 0 -214 46.5t-141 130.5t-78.5 201.5t-24.5 260.5zM377 395q0 -106 53 -169.5t145 -63.5t143.5 65.5t51.5 182.5q0 43 -8 84t-29.5 72.5t-57.5 50t-89 18.5q-104 0 -156.5 -68 t-52.5 -172z" />
<glyph unicode="7" horiz-adv-x="935" d="M76 1147v215h829v-215q-88 -96 -176 -234.5t-157.5 -288t-112.5 -293t-43 -249.5v-43q0 -20 2 -39h-260q-2 18 -2 40v40q0 121 48 265t123.5 288.5t167 279t177.5 234.5h-596z" />
<glyph unicode="8" horiz-adv-x="1114" d="M104 381q0 135 66 229.5t182 128.5v9q-72 27 -126 100.5t-54 185.5q0 147 100.5 237.5t284.5 90.5q180 0 282.5 -87t102.5 -235q0 -109 -52 -183.5t-128 -106.5v-9q119 -27 183.5 -123t64.5 -233q0 -86 -27 -160.5t-83 -130t-142 -87.5t-203 -32q-123 0 -209 34 t-139 90.5t-78 130t-25 151.5zM336 379q0 -111 60.5 -168t158.5 -57t158.5 57t60.5 168q0 47 -12 94t-39 84t-69 60.5t-99 23.5q-59 0 -100 -23.5t-68 -61.5t-39 -85t-12 -92zM397 1010q0 -86 43 -135.5t115 -49.5t115 49.5t43 133.5q0 80 -40 126t-118 46q-76 0 -117 -44 t-41 -126z" />
<glyph unicode="9" d="M92 934q0 74 23.5 149.5t76 137t135.5 100.5t203 39q127 0 214 -46t141.5 -130t79 -202t24.5 -261q0 -139 -23.5 -273.5t-82 -239t-155.5 -169t-243 -64.5q-37 0 -82 5.5t-91 17.5t-89 32.5t-73 51.5l51 180q68 -51 143.5 -71.5t132.5 -20.5q86 0 142.5 38t90 99.5 t48 137t14.5 151.5v30q0 13 -2 29l-6 2q-35 -74 -107.5 -108.5t-171.5 -34.5q-117 0 -192.5 43t-120.5 106.5t-62.5 136.5t-17.5 134zM334 926q0 -43 8 -84t29.5 -73t57.5 -50.5t89 -18.5q104 0 156.5 68t52.5 172q0 106 -53 170t-146 64q-92 0 -143 -65.5t-51 -182.5z" />
<glyph unicode=":" horiz-adv-x="561" d="M133 121q0 29 11.5 55.5t32 48t46 33.5t56.5 12q29 0 55 -12t47.5 -33.5t34 -48t12.5 -55.5q0 -31 -12.5 -56.5t-34 -46t-48 -32t-54.5 -11.5q-59 0 -102.5 43.5t-43.5 102.5zM133 782q0 29 11.5 55.5t32 48t46 34t56.5 12.5q29 0 55 -12.5t47.5 -34t34 -48t12.5 -55.5 q0 -31 -12.5 -56.5t-34 -46t-48 -31.5t-54.5 -11q-59 0 -102.5 43t-43.5 102z" />
<glyph unicode=";" horiz-adv-x="571" d="M123 -242l92 232h-51v280h244v-311l-211 -252zM141 782q0 29 11.5 55.5t32 48t46 34t56.5 12.5q29 0 55.5 -12.5t48 -34t33.5 -48t12 -55.5q0 -31 -12 -56.5t-33.5 -46t-48.5 -31.5t-55 -11q-59 0 -102.5 43t-43.5 102z" />
<glyph unicode="&#x3c;" horiz-adv-x="813" d="M80 426v133l584 397l36 -190l-403 -268v-11l405 -272l-36 -192z" />
<glyph unicode="=" horiz-adv-x="974" d="M141 250v168h693v-168h-693zM141 561v168h693v-168h-693z" />
<glyph unicode="&#x3e;" horiz-adv-x="813" d="M111 215l405 272v11l-403 268l37 190l583 -397v-133l-586 -403z" />
<glyph unicode="?" horiz-adv-x="837" d="M74 1298q57 43 142 75t177 32q76 0 139.5 -24.5t109.5 -67.5t71.5 -102.5t25.5 -129.5q0 -92 -40 -165.5t-88 -150.5t-89 -170t-41 -224h-213q0 139 39 237.5t85 173t85 139t39 136.5q0 82 -49 114.5t-111 32.5q-66 0 -129 -28.5t-100 -73.5zM233 121q0 57 43 99t103 42 q59 0 104 -42t45 -101t-46 -101.5t-105 -42.5t-101.5 43.5t-42.5 102.5z" />
<glyph unicode="@" horiz-adv-x="1476" d="M102 369q0 117 42 249t130 244.5t223.5 186t323.5 73.5q145 0 251 -45t174.5 -116.5t101 -161.5t32.5 -178q0 -94 -32.5 -179.5t-89 -150t-131 -102t-156.5 -37.5q-88 0 -123 42t-35 107q-35 -70 -94.5 -110.5t-112.5 -40.5q-31 0 -62.5 15t-56 46t-41 77t-16.5 107 q0 92 36 166t91 126t124 81t136 29q27 0 58.5 -5.5t62.5 -14.5t56.5 -24.5t41.5 -35.5l-63 -291q-4 -20 -6 -42t-2 -38t6 -32.5t35 -16.5q35 0 65.5 26.5t53 70.5t36 99.5t13.5 112.5q0 66 -19.5 130.5t-62.5 114.5t-111 82t-162 32q-125 0 -219 -53.5t-157.5 -138.5 t-96.5 -191.5t-33 -212.5q0 -111 33 -190t90.5 -129t132 -73.5t160.5 -23.5q80 0 150.5 17.5t127 43t98.5 54t64 49.5v-164q-20 -18 -64 -46t-105.5 -53.5t-138.5 -43t-161 -17.5q-121 0 -229.5 41t-190 116t-130 181.5t-48.5 237.5zM631 391q0 -84 45 -84q18 0 39.5 15.5 t42 43t37 63.5t22.5 79l25 147q-18 8 -41 9q-41 0 -72 -28t-53.5 -69t-33.5 -89t-11 -87z" />
<glyph unicode="A" horiz-adv-x="1286" d="M4 0l524 1352h203l578 -1352h-256l-154 393h-510l-139 -393h-246zM455 578h370l-194 497z" />
<glyph unicode="B" horiz-adv-x="1167" d="M180 0v1352q23 2 64 3t88 3t94 3t84 1q217 0 332.5 -89t115.5 -263q0 -82 -33.5 -148.5t-105.5 -113.5q123 -41 192.5 -129.5t69.5 -223.5q0 -86 -30.5 -161.5t-94 -133t-157.5 -91.5t-221 -34q-113 0 -219.5 7.5t-178.5 17.5zM416 176q37 -4 76 -4h79q125 0 195 61.5 t70 178.5q0 104 -63.5 164.5t-205.5 60.5q-39 0 -77.5 -1t-73.5 -3v-457zM416 809q25 -2 50 -2h52q90 0 141.5 60.5t51.5 158.5q0 61 -42 102t-120 41q-41 0 -73 -3t-60 -7v-350z" />
<glyph unicode="C" horiz-adv-x="1286" d="M102 662q0 145 43 272t128 222t211 150.5t294 55.5q111 0 221.5 -23.5t190.5 -64.5l-60 -213q-66 45 -156.5 72.5t-207.5 27.5q-111 0 -189.5 -34.5t-128 -98t-73 -153t-23.5 -197.5q0 -248 105.5 -375t304.5 -127q123 0 224 37t167 90l61 -203q-82 -49 -197.5 -87 t-260.5 -38q-168 0 -291 55.5t-204 149.5t-120 218.5t-39 263.5z" />
<glyph unicode="D" horiz-adv-x="1447" d="M180 0v1352q27 2 84.5 4t121 3t121.5 2t91 1q199 0 327 -41t212 -113q109 -94 157.5 -239.5t48.5 -321.5q0 -133 -33.5 -255t-120.5 -214t-239.5 -146.5t-390.5 -54.5q-86 0 -184.5 6.5t-194.5 16.5zM416 180q57 -4 110.5 -6t89.5 -2q248 0 362 119t114 387 q0 121 -24 212t-81 152.5t-153.5 92t-239.5 30.5h-77q-48 0 -101 -2v-983z" />
<glyph unicode="E" horiz-adv-x="1083" d="M180 0v1352h783v-205h-547v-328h409v-205h-409v-409h588v-205h-824z" />
<glyph unicode="F" horiz-adv-x="997" d="M180 0v1352h772v-205h-536v-328h387v-205h-387v-614h-236z" />
<glyph unicode="G" horiz-adv-x="1345" d="M102 662q0 145 43 272t128 222t212 150.5t297 55.5q115 0 227.5 -23.5t200.5 -64.5l-65 -213q-70 41 -162 70.5t-209 29.5t-197.5 -33.5t-130 -97t-72 -153t-22.5 -201.5q0 -500 424 -500q76 0 121 12.5t96 28.5v340h236v-444q-92 -61 -211 -99.5t-260 -38.5 q-170 0 -293 55.5t-204 149.5t-120 218.5t-39 263.5z" />
<glyph unicode="H" horiz-adv-x="1478" d="M180 0v1352h236v-553h647v553h235v-1352h-235v594h-647v-594h-236z" />
<glyph unicode="I" horiz-adv-x="595" d="M180 0v1352h236v-1352h-236z" />
<glyph unicode="J" horiz-adv-x="593" d="M-27 -141q72 0 114 32.5t62.5 83t25.5 113t5 121.5v1143h236v-1145q0 -109 -23.5 -204t-73 -167t-124 -113.5t-177.5 -41.5z" />
<glyph unicode="K" horiz-adv-x="1247" d="M180 0v1352h236v-590q117 111 209 215q86 98 155.5 191.5t120.5 183.5h258q-90 -123 -172 -225.5t-180 -213.5q-37 -41 -76 -84t-80 -86l604 -743h-272l-481 592l-86 -80v-512h-236z" />
<glyph unicode="L" horiz-adv-x="1017" d="M180 0v1352h236v-1147h563v-205h-799z" />
<glyph unicode="M" horiz-adv-x="1806" d="M180 0v1352h269l460 -1033l449 1033h268v-1352h-233v891l-389 -891h-189l-399 891v-891h-236z" />
<glyph unicode="N" horiz-adv-x="1478" d="M180 0v1352h289l594 -994v994h235v-1352h-288l-594 991v-991h-236z" />
<glyph unicode="O" horiz-adv-x="1519" d="M100 659q0 145 44 273.5t128 223.5t207 150.5t281 55.5q160 0 282.5 -55.5t206.5 -150.5t127 -220t43 -262q0 -135 -42 -261t-127 -223.5t-211 -156t-294 -58.5q-164 0 -284.5 55.5t-200.5 149.5t-120 218t-40 261zM352 680q0 -250 102.5 -377t295.5 -127q113 0 191.5 38 t129.5 104.5t74.5 156.5t23.5 193q0 111 -24.5 200.5t-75.5 155.5t-130 101.5t-185 35.5q-109 0 -185.5 -35.5t-125 -99t-70 -152t-21.5 -194.5z" />
<glyph unicode="P" horiz-adv-x="1087" d="M180 0v1352q31 2 71 4t84 3l88 2q44 1 83 1q115 0 209 -27.5t161.5 -83t104.5 -136.5t37 -187q0 -86 -28.5 -162t-86 -133.5t-146.5 -91t-208 -33.5h-69q-34 0 -64 2v-510h-236zM416 707q29 -2 60 -2h67q111 0 167 61t56 178q0 98 -50 159.5t-177 61.5h-64q-31 0 -59 -2 v-456z" />
<glyph unicode="Q" horiz-adv-x="1525" d="M104 659q0 145 44.5 273.5t128 223.5t206.5 150.5t281 55.5q160 0 282.5 -55.5t206.5 -150.5t127 -220t43 -262q0 -131 -40 -254t-119.5 -219.5t-198.5 -156.5t-277 -67q74 -8 141.5 -32.5t134 -50t135.5 -46t147 -20.5q45 0 94 9t104 32l-53 -201q-37 -14 -73 -19 t-70 -5q-86 0 -165 27.5t-156 59t-151.5 59.5t-150.5 28q-45 0 -112.5 -16.5t-131.5 -63.5l-41 147q55 43 120 65.5t124 26.5q-145 10 -255 69.5t-181.5 152t-107.5 211t-36 249.5zM356 674q0 -246 102.5 -372t299.5 -126q111 0 189.5 39t128.5 105.5t74 157.5t24 196 q0 106 -25 196.5t-76 155t-130 100t-187 35.5q-109 0 -184.5 -35.5t-124 -100t-70 -153.5t-21.5 -198z" />
<glyph unicode="R" horiz-adv-x="1241" d="M180 0v1352q33 2 75 4t85 3t81 2t60 1q262 0 399.5 -99.5t137.5 -289.5q0 -121 -59.5 -217.5t-198.5 -143.5l495 -612h-272l-471 578h-46q-24 0 -50 2v-580h-236zM416 774h127q111 0 168 55.5t57 157.5q0 92 -56.5 135t-209.5 43h-39q-23 0 -47 -2v-389z" />
<glyph unicode="S" horiz-adv-x="1110" d="M86 88l61 221q78 -59 173.5 -98t218.5 -39q131 0 190 46t59 124q0 59 -28.5 101t-71.5 72t-91 48.5t-85 30.5q-66 20 -133.5 49t-124.5 75t-93 115.5t-36 174.5q0 98 34 165.5t92 109.5t137 60.5t171 18.5q113 0 218.5 -22.5t176.5 -55.5l-55 -217q-37 25 -80 43 t-89 30.5t-92 19.5t-87 7q-92 0 -145.5 -34.5t-53.5 -106.5q0 -43 19.5 -73.5t54.5 -53t83 -42t107 -40.5q74 -27 147 -60.5t131 -83.5t95 -124t37 -178q0 -111 -40 -186.5t-107.5 -122t-155.5 -67t-182 -20.5q-135 0 -253 33t-202 80z" />
<glyph unicode="T" d="M43 1147v205h1018v-205h-391v-1147h-236v1147h-391z" />
<glyph unicode="U" horiz-adv-x="1443" d="M166 475v877h235v-828q0 -186 86 -267t240 -81t241 81t87 267v828h225v-877q0 -100 -33 -190t-101.5 -159t-176 -109t-254.5 -40t-252 40t-171.5 109t-96 159t-29.5 190z" />
<glyph unicode="V" horiz-adv-x="1298" d="M-25 1352h256l431 -1065l389 1065h245l-540 -1352h-187z" />
<glyph unicode="W" horiz-adv-x="2134" d="M2 1352h256l346 -1049l348 1049h232l346 -1049l346 1049h256l-502 -1352h-194l-369 1028l-367 -1028h-194z" />
<glyph unicode="X" horiz-adv-x="1306" d="M23 0l499 696l-469 656h264l342 -529l338 529h258l-471 -658l498 -694h-264l-371 547l-366 -547h-258z" />
<glyph unicode="Y" horiz-adv-x="1155" d="M-25 1352h265l346 -613l332 613h260l-482 -797v-555h-235v547z" />
<glyph unicode="Z" horiz-adv-x="1134" d="M88 0v205l672 942h-641v205h897v-205l-672 -942h703v-205h-959z" />
<glyph unicode="[" horiz-adv-x="575" d="M158 -195v1729h327v-148h-112v-1433h112v-148h-327z" />
<glyph unicode="\" horiz-adv-x="921" d="M59 1438h232l569 -1555h-231z" />
<glyph unicode="]" horiz-adv-x="575" d="M90 -47h113v1433h-113v148h328v-1729h-328v148z" />
<glyph unicode="^" horiz-adv-x="712" d="M117 1161l6 15l225 202h17l225 -202l6 -15l-33 -59l-14 -6l-193 84l-192 -84l-14 6z" />
<glyph unicode="_" horiz-adv-x="964" d="M39 0h887v-168h-887v168z" />
<glyph unicode="`" horiz-adv-x="448" d="M0 1292q0 35 16.5 71t44.5 36q8 0 21 -6l369 -207l6 -15l-31 -73l-16 -6l-383 141q-14 4 -20.5 20t-6.5 39z" />
<glyph unicode="a" horiz-adv-x="1026" d="M70 248q0 84 35.5 150.5t103 112.5t162 70.5t211.5 24.5h88v31q0 80 -52 117q-53 37 -165 37q-152 0 -271 -68l-43 170q137 80 332 80q205 0 311 -84q49 -39 81 -100.5t32 -147.5v-641h-180l-17 129h-8q-55 -70 -150.5 -112t-193.5 -42q-129 0 -202.5 75t-73.5 198z M309 281q0 -123 125 -123q66 0 131.5 31.5t104.5 84.5v187h-39q-168 0 -245 -43t-77 -137z" />
<glyph unicode="b" horiz-adv-x="1175" d="M141 0v1516h224v-668q47 59 124.5 92t176.5 33q106 0 186 -41t133 -108.5t79 -156.5t26 -186q0 -109 -31 -201t-87.5 -159.5t-136 -106.5t-176.5 -39q-111 0 -183.5 45.5t-129.5 108.5h-8l-16 -129h-181zM365 274q23 -31 55.5 -54t68 -39.5t72.5 -26t70 -9.5q59 0 103 29 t74 75t44 106.5t14 121.5q0 63 -15 121.5t-47 104t-80 71t-112 25.5q-59 0 -122.5 -28t-124.5 -103v-394z" />
<glyph unicode="c" horiz-adv-x="1001" d="M86 479q0 98 27.5 187.5t87 158t151.5 108.5t221 40q98 0 192.5 -22.5t152.5 -59.5l-50 -182q-23 16 -56.5 32.5t-72.5 28.5t-81 19.5t-78 7.5q-70 0 -118 -26t-78 -67.5t-43 -97t-13 -114.5q0 -70 16 -130.5t49 -105.5t83 -71.5t116 -26.5q74 0 156.5 29.5t138.5 82.5 l41 -192q-57 -37 -156.5 -70t-212.5 -33q-119 0 -208 41t-147.5 110t-88 160t-29.5 193z" />
<glyph unicode="d" horiz-adv-x="1175" d="M86 481q0 96 25.5 185.5t79 157t132 108.5t187.5 41q98 0 176 -33t125 -92v668h223v-1516h-180l-16 129h-9q-57 -63 -129.5 -108.5t-183.5 -45.5q-96 0 -176 39t-136.5 106.5t-87 159.5t-30.5 201zM309 477q0 -61 14.5 -121.5t43 -106.5t73.5 -75t105 -29q33 0 69.5 9.5 t72.5 26t68.5 40t55.5 53.5v394q-61 76 -124.5 103.5t-123.5 27.5q-66 0 -113 -25.5t-78.5 -71t-47 -104t-15.5 -121.5z" />
<glyph unicode="e" horiz-adv-x="1034" d="M84 471q0 100 31.5 191.5t93 161t153 109.5t207.5 40q180 0 278.5 -91t98.5 -257q0 -23 -3 -48.5t-8 -50t-12.5 -44t-15.5 -31.5h-596q4 -61 22.5 -115.5t53.5 -94.5t85 -63.5t118 -23.5q76 0 161 28.5t144 71.5l37 -168q-27 -16 -66 -35.5t-88 -36t-105.5 -28 t-117.5 -11.5q-115 0 -203 40t-147.5 109t-90 159t-30.5 188zM330 610h391q2 6 3 14.5t1 20.5q0 66 -45 109t-117 43q-86 0 -146 -50.5t-87 -136.5z" />
<glyph unicode="f" horiz-adv-x="634" d="M70 805v117l116 18q0 117 7.5 199t19.5 138t27.5 91t31.5 57q41 53 107.5 77t146.5 24q10 0 33 -1t50.5 -5t57 -13.5t54.5 -23.5l-51 -174q-20 12 -67.5 33.5t-92.5 21.5q-27 0 -45.5 -12.5t-30.5 -45t-17 -88t-5 -141.5v-135h180v-137h-180v-805h-226v805h-116z" />
<glyph unicode="g" horiz-adv-x="1019" d="M53 -233q0 41 14.5 80.5t40 73.5t59.5 60.5t73 38.5v9q-47 20 -65.5 55t-18.5 68q0 43 28.5 79.5t81.5 57.5v8q-92 39 -133 121t-41 178q0 80 26.5 149.5t77 119.5t121 79t160.5 29q53 0 105.5 -10.5t91.5 -30.5q86 2 156.5 13t136.5 30l18 -14l-22 -156l-11 -10l-145 16 l-2 -6q70 -88 69 -207q0 -72 -25.5 -134.5t-74.5 -108.5t-121.5 -73.5t-165.5 -27.5q-23 0 -36 1t-25 1q-35 -12 -53.5 -31.5t-18.5 -40.5q0 -23 22.5 -39t69.5 -22l199 -25q68 -8 126 -28.5t102.5 -55t69 -84t24.5 -112.5t-27 -123t-84 -105t-144 -71.5t-210 -26.5 q-109 0 -192 21.5t-140 58.5t-87 87.5t-30 107.5zM254 -209q0 -66 64.5 -98.5t187.5 -32.5q121 0 192.5 34t71.5 109q0 74 -80 105t-268 47q-70 -12 -119 -58.5t-49 -105.5zM305 610q0 -37 11.5 -72.5t34 -63.5t56 -45t78.5 -17q84 0 127 54t43 132q0 37 -10 75t-32.5 68.5 t-56.5 50t-79 19.5q-43 0 -75.5 -17.5t-54 -46t-32 -64.5t-10.5 -73z" />
<glyph unicode="h" horiz-adv-x="1130" d="M141 0v1516h226v-713q57 90 134 130t181 40q61 0 118.5 -17.5t101.5 -56.5t69.5 -102.5t25.5 -155.5v-641h-225v623q0 84 -37 126t-100 42q-39 0 -81 -12.5t-79 -37t-65.5 -59.5t-42.5 -78v-604h-226z" />
<glyph unicode="i" horiz-adv-x="507" d="M109 1245q0 29 11 55.5t31.5 48t46 34t56.5 12.5q29 0 55.5 -12.5t48 -34t33.5 -48t12 -55.5q0 -31 -12 -56.5t-33.5 -46t-48 -31.5t-55.5 -11q-59 0 -102 43t-43 102zM141 0v942h226v-942h-226z" />
<glyph unicode="j" horiz-adv-x="507" d="M-78 -385q6 -4 18.5 -5t24.5 -1q61 0 96 38t53.5 96t22.5 126t4 127v946h226v-948q0 -104 -24 -198.5t-69 -167t-111.5 -114.5t-154.5 -42q-16 0 -29.5 1t-19.5 5zM109 1245q0 29 11 55.5t31.5 48t46 34t56.5 12.5q59 0 104 -46t45 -106q0 -59 -46 -101t-105 -42t-101 43 t-42 102z" />
<glyph unicode="k" horiz-adv-x="1009" d="M141 0v1516h226v-875l313 301h252l-336 -332l401 -610h-245l-306 463l-79 -80v-383h-226z" />
<glyph unicode="l" horiz-adv-x="532" d="M154 0v1516h225v-1516h-225z" />
<glyph unicode="m" horiz-adv-x="1710" d="M141 0v942h176l11 -139h8q41 86 130 128t189 42q96 0 175 -38t118 -130q41 84 129 126t189 42q66 0 124 -17.5t102 -56.5t69.5 -102.5t25.5 -155.5v-641h-225v623q0 168 -133 168q-33 0 -71 -12.5t-73.5 -36t-65.5 -58.5t-42 -80v-604h-225v623q0 168 -134 168 q-33 0 -70.5 -12.5t-73.5 -36t-65.5 -58.5t-41.5 -80v-604h-226z" />
<glyph unicode="n" horiz-adv-x="1120" d="M141 0v942h176l11 -139h8q43 86 134 128t196 42q68 0 127 -17.5t105 -56.5t72.5 -102.5t26.5 -155.5v-641h-225v623q0 168 -143 168q-35 0 -75 -12.5t-77 -36t-66.5 -58.5t-43.5 -80v-604h-226z" />
<glyph unicode="o" horiz-adv-x="1124" d="M86 475q0 100 28.5 190.5t87 159t148.5 108.5t211 40q125 0 215 -42t148.5 -112.5t86 -162t27.5 -191.5t-27.5 -189.5t-86 -156t-147.5 -105.5t-210 -39q-125 0 -215 41t-149.5 110t-88 159t-28.5 190zM328 481q0 -66 13 -126t43 -107t75 -75t106 -28q59 0 103.5 26 t73 70t42 101t13.5 121q0 66 -14.5 126t-44 106t-75 74t-108.5 28q-59 0 -102 -26t-71 -69t-41 -100.5t-13 -120.5z" />
<glyph unicode="p" horiz-adv-x="1177" d="M141 -532v1474h181l16 -129h8q27 33 63.5 62.5t79.5 51t88.5 34t88.5 12.5q111 0 190.5 -42t131.5 -111.5t77 -161t25 -189.5q0 -100 -26 -190.5t-79 -158t-133 -106.5t-190 -39q-92 0 -171 27t-126 86v-620h-224zM365 268q61 -76 125.5 -95t117.5 -19q68 0 116 24.5 t80 66.5t47 98t15 122q0 61 -13 121.5t-43 107.5t-75 77t-106 30q-31 0 -68 -9.5t-72.5 -26.5t-68.5 -42t-55 -55v-400z" />
<glyph unicode="q" horiz-adv-x="1177" d="M88 469q0 98 24.5 189.5t77 161t132 111.5t190.5 42q43 0 88 -12.5t88 -34t80 -51t63 -62.5h9l16 129h180v-1474h-223v620q-47 -59 -126 -86t-171 -27q-111 0 -190.5 39t-133 106.5t-79 158t-25.5 190.5zM311 465q0 -66 15.5 -123t47.5 -100t80 -67.5t115 -24.5 q53 0 118 24.5t126 93.5v400q-23 31 -55.5 55.5t-68.5 41.5t-72.5 26.5t-67.5 9.5q-61 0 -106.5 -30t-75 -77t-43 -107.5t-13.5 -121.5z" />
<glyph unicode="r" horiz-adv-x="765" d="M141 0v942h176l11 -197h8q20 43 42.5 84t51.5 73t67 51.5t89 19.5q82 0 153 -53l-59 -183q-20 16 -63.5 26.5t-73.5 10.5q-41 0 -67.5 -19.5t-47 -51t-35 -72.5t-26.5 -84v-547h-226z" />
<glyph unicode="s" horiz-adv-x="886" d="M88 78l53 194q70 -68 157 -100.5t161 -32.5q78 0 118.5 34t40.5 93q0 35 -20 58.5t-82 40.5l-197 49q-70 16 -113.5 47t-69 68.5t-35 78.5t-9.5 78q0 137 96.5 212t249.5 75q80 0 172 -21.5t156 -62.5l-59 -184q-41 33 -115 66.5t-164 33.5q-68 0 -105.5 -25.5 t-37.5 -72.5q0 -31 21.5 -56.5t90.5 -42.5l146 -33q86 -18 138 -53t82 -75.5t40 -84t10 -79.5q0 -66 -26.5 -122.5t-75.5 -97t-119 -64.5t-156 -24q-109 0 -201 32t-147 71z" />
<glyph unicode="t" horiz-adv-x="679" d="M68 805v123l133 20l37 279h172v-285h180v-137h-180v-541q0 -61 12 -82.5t47 -21.5q27 0 53.5 10t77.5 39l37 -162q-39 -33 -109.5 -52.5t-140.5 -19.5q-61 0 -101 16.5t-62.5 48.5t-31 77t-8.5 100v588h-116z" />
<glyph unicode="u" d="M133 301v641h225v-612q0 -84 44 -128t114 -44q72 0 131.5 48t87.5 138v598h228v-942h-177l-12 131h-8q-23 -47 -57.5 -76.5t-76.5 -47t-87 -25t-88 -7.5q-68 0 -126.5 16.5t-102.5 54.5t-69.5 100.5t-25.5 154.5z" />
<glyph unicode="v" horiz-adv-x="1073" d="M20 942h236l285 -756l297 756h221l-389 -942h-273z" />
<glyph unicode="w" horiz-adv-x="1683" d="M27 942h235l246 -723l223 723h225l224 -723l245 723h232l-342 -942h-268l-203 655l-203 -655h-272z" />
<glyph unicode="x" horiz-adv-x="1040" d="M29 0l362 481l-342 461h256l221 -317l211 317h256l-344 -457l365 -485h-256l-240 344l-233 -344h-256z" />
<glyph unicode="y" horiz-adv-x="1062" d="M-14 942h235l328 -670l262 670h217l-389 -950q-29 -72 -79 -161t-118.5 -168t-154.5 -133t-187 -54q-16 0 -24 1t-19 5l-39 176q6 -2 14.5 -4t35.5 -2q39 0 76.5 8t76.5 33q74 47 128 131t106 207z" />
<glyph unicode="z" horiz-adv-x="856" d="M86 0v182l430 578h-410v182h644v-182l-443 -578h463v-182h-684z" />
<glyph unicode="{" horiz-adv-x="598" d="M61 618v103q55 2 85 28.5t43.5 61.5t16.5 73t3 64q0 43 -1 90t-1 90t-1 78t-1 58q0 66 10 120t42 91.5t89 59t154 21.5l4 -104q-49 -6 -60.5 -49t-11.5 -90q0 -25 1 -66t1 -84t1 -83t1 -60q0 -147 -44 -235.5t-148 -114.5q104 -27 148 -115t44 -236q0 -23 -1 -61.5 t-1 -81.5t-1 -83t-1 -64q0 -49 11.5 -92t60.5 -50l-4 -104q-96 0 -153.5 21.5t-89.5 59.5t-42 92t-10 122q0 20 1 58t1 80t1 85t1 76q0 37 -3 78t-17.5 76.5t-44.5 60t-83 26.5z" />
<glyph unicode="|" horiz-adv-x="524" d="M158 -233v1806h209v-1806h-209z" />
<glyph unicode="}" horiz-adv-x="598" d="M94 -113q49 6 60.5 49.5t11.5 90.5q0 25 -1 65.5t-1 83.5t-1 82t-1 61q0 147 44 235.5t148 115.5q-104 27 -148 114.5t-44 235.5q0 20 1 60t1 83t1 83t1 65q0 49 -11.5 92t-60.5 49l4 104q94 0 152.5 -21.5t90.5 -59t42 -92t10 -121.5q0 -23 -1 -60t-1 -79t-1 -85t-1 -75 q0 -37 3 -78t17.5 -77t44 -60.5t83.5 -26.5v-103q-55 -4 -85 -29.5t-43.5 -60t-16.5 -72.5t-3 -65q0 -43 1 -90t1 -90t1 -79t1 -56q0 -66 -10 -120t-42 -93t-90 -59.5t-153 -20.5z" />
<glyph unicode="~" horiz-adv-x="970" d="M131 414q0 16 11.5 48t35 62.5t60 54t88.5 23.5q18 0 61 -3t94 -6t104.5 -6t94.5 -3q39 0 75 7t62 40l25 -41q0 -10 -10.5 -40t-32 -63.5t-57 -59.5t-87.5 -26q-16 0 -67 3.5t-111.5 6.5t-117 6t-85.5 3q-47 0 -71.5 -10.5t-44.5 -34.5z" />
<glyph unicode="&#xa1;" horiz-adv-x="522" d="M115 831q0 59 46 101.5t105 42.5t101.5 -43t42.5 -103q0 -57 -43 -99t-103 -42q-59 0 -104 42t-45 101zM119 -446l53 1028h178l49 -1028h-280z" />
<glyph unicode="&#xa2;" horiz-adv-x="1015" d="M84 449q0 84 23.5 161.5t72.5 139t126 103.5t183 54v275h189v-279q72 -10 134 -28.5t103 -45.5l-53 -190q-29 27 -78 48.5t-106 33.5v-559q59 14 112.5 41.5t94.5 64.5l41 -190q-41 -29 -105.5 -53.5t-142.5 -36.5v-269h-189v261q-102 10 -177.5 52t-127 104.5t-76 143.5 t-24.5 169zM303 455q0 -98 50 -178t136 -111v557q-92 -27 -139 -103.5t-47 -164.5z" />
<glyph unicode="&#xa3;" horiz-adv-x="1193" d="M66 74q156 59 225 169.5t69 237.5v31h-190v168h182q-10 90 -24.5 169t-14.5 148q0 98 36 168t94.5 114t129 63.5t142.5 19.5q92 0 183 -28.5t144 -71.5l-45 -187q-41 41 -119.5 71t-154.5 30q-49 0 -81 -13.5t-50.5 -37t-25.5 -55.5t-7 -71q0 -63 12.5 -145t20.5 -174 h250v-168h-246q-4 -86 -36 -179t-99 -171l4 -6q57 -4 112.5 -17.5t113 -29t114.5 -27.5t119 -12q98 0 190 39l-49 -201q-51 -27 -86 -34t-70 -7q-82 0 -158.5 21.5t-150.5 46t-144.5 46t-140.5 21.5q-43 0 -95 -13.5t-109 -60.5z" />
<glyph unicode="&#xa4;" horiz-adv-x="1212" d="M98 856l113 113l149 -146q61 41 120 60.5t124 19.5q68 0 126 -19.5t116 -60.5l149 146l113 -111l-145 -149q41 -59 60 -118t19 -124q0 -66 -18 -122t-59 -116l149 -147l-115 -113l-151 146q-113 -82 -240 -82q-63 0 -120.5 19.5t-122.5 62.5l-150 -146l-111 113l146 147 q-80 104 -80 242q0 63 18.5 120.5t63.5 117.5zM334 469q0 -57 21.5 -107.5t58.5 -87t87 -58t107 -21.5t106.5 21.5t86.5 58t57.5 87t20.5 107.5t-20.5 107.5t-57.5 87t-87 58t-108 21.5q-55 0 -105 -21.5t-87 -58t-58.5 -87t-21.5 -107.5z" />
<glyph unicode="&#xa5;" horiz-adv-x="1325" d="M63 1352h265l346 -613l332 613h260l-334 -553h155v-168h-258l-45 -76v-33h303v-168h-303v-354h-235v354h-320v168h320v25l-51 84h-269v168h168z" />
<glyph unicode="&#xa6;" horiz-adv-x="528" d="M160 -233v794h209v-794h-209zM160 778v795h209v-795h-209z" />
<glyph unicode="&#xa7;" horiz-adv-x="888" d="M88 760q0 76 35 147.5t94 114.5q-23 61 -22 127q0 78 27.5 135t71.5 94t96 55.5t102 18.5q68 0 140.5 -27.5t119.5 -66.5l-68 -158q-39 29 -82 45.5t-78 16.5q-53 0 -82.5 -38t-29.5 -98q0 -59 28.5 -105t71.5 -86t94 -77t94 -80t72 -95t29 -122q0 -78 -36 -148.5 t-93 -115.5q23 -57 22 -125q0 -78 -27.5 -135t-71.5 -94t-96.5 -55.5t-101.5 -18.5q-68 0 -140.5 27.5t-119.5 66.5l68 158q39 -29 82 -45.5t78 -16.5q53 0 82.5 38t29.5 98q0 59 -28.5 105t-71.5 86t-94.5 77t-94.5 80t-71.5 95t-28.5 122zM270 813q0 -63 34 -112.5 t83 -93.5t106.5 -89t104.5 -100q20 45 20 90q0 61 -33.5 110.5t-83.5 94.5t-107.5 90t-104.5 100q-19 -41 -19 -90z" />
<glyph unicode="&#xa8;" horiz-adv-x="450" d="M0 1266q0 47 35 83.5t82 36.5t84 -36.5t37 -83.5t-37 -82t-84 -35t-82 35t-35 82zM279 1266q0 47 34.5 83.5t81.5 36.5t84 -36.5t37 -83.5t-37 -82t-84 -35t-81.5 35t-34.5 82z" />
<glyph unicode="&#xa9;" horiz-adv-x="1456" d="M106 725q0 127 48.5 238.5t133.5 195.5t197.5 132t241.5 48t242.5 -48t197.5 -132t133.5 -195.5t49.5 -238.5q0 -129 -49.5 -242.5t-134.5 -196.5t-200.5 -131.5t-248.5 -48.5q-125 0 -236.5 49.5t-194.5 133.5t-131.5 196.5t-48.5 239.5zM231 729q0 -109 37 -202 t102.5 -161.5t152.5 -108.5t190 -40q109 0 201 39t159.5 106.5t106.5 159.5t39 201q0 104 -38 196.5t-103.5 161t-154.5 108.5t-192 40q-106 0 -197.5 -39t-159 -106.5t-105.5 -159t-38 -195.5zM381 729q0 70 19.5 132.5t60.5 109.5t105.5 75.5t154.5 28.5q68 0 134.5 -15.5 t107.5 -41.5l-33 -144q-29 18 -90.5 34t-114.5 16q-49 0 -83 -17.5t-55.5 -45t-30.5 -62.5t-9 -72q0 -82 46 -144.5t138 -62.5q57 0 115.5 22.5t97.5 51.5l25 -145q-41 -27 -111 -49.5t-147 -22.5q-84 0 -145.5 28.5t-102.5 76.5t-61.5 111.5t-20.5 135.5z" />
<glyph unicode="&#xaa;" horiz-adv-x="747" d="M104 903q0 102 82 158.5t226 56.5h51v19q0 25 -6 42t-25 31q-35 27 -94 27q-53 0 -92 -18.5t-74 -42.5l-27 112q80 59 203 60q53 0 102.5 -11.5t86.5 -40.5q39 -31 57 -76.5t18 -93.5v-370h-120l-9 75h-8q-33 -41 -89 -66.5t-116 -25.5q-80 0 -123 46t-43 118zM248 922 q0 -72 74 -72q41 0 79.5 19.5t61.5 50.5v112h-23q-102 0 -147 -26.5t-45 -83.5z" />
<glyph unicode="&#xab;" horiz-adv-x="1087" d="M88 489v11l274 360h230l-297 -362v-11l297 -362h-232zM485 489v11l275 360h229l-297 -362v-11l297 -362h-231z" />
<glyph unicode="&#xac;" horiz-adv-x="1277" d="M141 561v168h983v-489h-190v321h-793z" />
<glyph unicode="&#xad;" horiz-adv-x="954" d="M133 406v167h688v-167h-688z" />
<glyph unicode="&#xae;" horiz-adv-x="1456" d="M106 725q0 127 48.5 238.5t133.5 195.5t197.5 132t241.5 48t242.5 -48t197.5 -132t133.5 -195.5t49.5 -238.5q0 -129 -49.5 -242.5t-134.5 -196.5t-200.5 -131.5t-248.5 -48.5q-125 0 -236.5 49.5t-194.5 133.5t-131.5 196.5t-48.5 239.5zM231 729q0 -109 37 -202 t102.5 -161.5t152.5 -108.5t190 -40q109 0 201 39t159.5 106.5t106.5 159.5t39 201q0 104 -38 196.5t-103.5 161t-154.5 108.5t-192 40q-106 0 -197.5 -39t-159 -106.5t-105.5 -159t-38 -195.5zM506 412v671q16 2 41 3l49 3q25 1 46 1h34q86 0 140 -17.5t85 -47.5t43 -70 t12 -87q0 -55 -28.5 -103t-81.5 -77l153 -276h-145l-127 243h-84v-243h-137zM643 754h59q57 0 89 37.5t32 89.5q0 47 -31.5 78.5t-115.5 31.5h-33v-237z" />
<glyph unicode="&#xb0;" horiz-adv-x="757" d="M98 1079q0 55 18.5 104.5t53.5 85.5t87 57.5t120 21.5q70 0 123 -21.5t89 -58.5t53 -87.5t17 -105.5q0 -53 -16 -100t-51 -82t-88 -55.5t-127 -20.5t-127 21.5t-87 57.5t-49.5 83t-15.5 100zM242 1085q0 -55 33.5 -99t101.5 -44q72 0 101.5 41t29.5 96q0 53 -29.5 95.5 t-101.5 42.5t-103.5 -40.5t-31.5 -91.5z" />
<glyph unicode="&#xb1;" horiz-adv-x="948" d="M145 84v168h658v-168h-658zM147 582v168h238v182h188v-182h228v-168h-228v-207h-188v207h-238z" />
<glyph unicode="&#xb2;" horiz-adv-x="772" d="M119 612v127q49 55 113.5 105.5t121 98.5t95 97.5t38.5 106.5q0 12 -3 28.5t-12 31t-26.5 23.5t-44.5 9q-53 0 -112.5 -36t-104.5 -93l-34 131q66 59 131 90t137 31q104 0 160.5 -55.5t56.5 -141.5q0 -59 -26.5 -112.5t-73 -104.5t-106.5 -102t-128 -107h334v-127h-516z " />
<glyph unicode="&#xb3;" horiz-adv-x="696" d="M98 680l25 123q43 -35 80 -56.5t98 -21.5q78 0 114 34t36 93q0 53 -36 83t-136 30h-25v110h31q66 0 97.5 25.5t31.5 70.5q0 29 -16.5 48.5t-67.5 19.5q-53 0 -93 -18.5t-67 -40.5l-23 120q47 29 88 45.5t99 16.5q104 0 162.5 -51t58.5 -131q0 -55 -26.5 -91t-69.5 -63 q63 -23 99 -67t36 -117q0 -47 -16.5 -90t-51 -77t-89 -53.5t-128.5 -19.5q-76 0 -120 20.5t-91 57.5z" />
<glyph unicode="&#xb4;" horiz-adv-x="448" d="M0 1171l6 15l369 207q12 6 20 6q29 0 45.5 -36t16.5 -71q0 -23 -6.5 -39t-20.5 -20l-383 -141l-16 6z" />
<glyph unicode="&#xb5;" horiz-adv-x="1173" d="M63 -227q37 70 66 132t48.5 125.5t30.5 129t11 141.5v641h225v-612q0 -84 44 -128t114 -44q72 0 131.5 49t87.5 139v596h228v-942h-177l-12 131h-8q-23 -47 -57.5 -76.5t-75.5 -47t-86 -25t-88 -7.5q-86 0 -154 25l-4 -16q-10 -43 -21.5 -80t-24.5 -73t-28.5 -74 t-36.5 -81z" />
<glyph unicode="&#xb6;" horiz-adv-x="1140" d="M68 928q0 106 34.5 187t99 136.5t156 83t201.5 27.5q78 0 188.5 -3t208.5 -7v-1528h-174v1341h-90v-1341h-184v684h-43q-94 0 -168 33.5t-125 91t-77.5 133.5t-26.5 162z" />
<glyph unicode="&#xb7;" horiz-adv-x="546" d="M127 498q0 29 11.5 55.5t31.5 48t46 33.5t56 12q29 0 55.5 -12t48 -33.5t34 -48.5t12.5 -55q0 -31 -12.5 -56.5t-34 -46t-48 -32t-55.5 -11.5q-59 0 -102 43.5t-43 102.5z" />
<glyph unicode="&#xb8;" horiz-adv-x="413" d="M0 -395l57 98h15q23 -10 58.5 -17.5t70.5 -7.5t62.5 13.5t27.5 48.5q0 37 -25.5 50t-60.5 13q-25 0 -50.5 -4t-48.5 -10l-38 53l104 158h111l-52 -84q31 8 60 8q72 0 117 -48t45 -120q0 -41 -19.5 -76.5t-53.5 -64.5t-81 -45t-102 -16q-53 0 -103.5 11t-91.5 27z" />
<glyph unicode="&#xb9;" horiz-adv-x="516" d="M72 1206l297 156v-750h-154v545l-117 -57z" />
<glyph unicode="&#xba;" horiz-adv-x="802" d="M96 1051q0 63 20.5 121.5t60.5 101.5t95.5 68.5t126.5 25.5q74 0 131.5 -26.5t96.5 -71.5t59.5 -103.5t20.5 -122.5q0 -59 -18.5 -115.5t-57.5 -99.5t-96.5 -68.5t-133.5 -25.5q-78 0 -135 26.5t-95 71t-56.5 102t-18.5 116.5zM262 1053q0 -72 34 -122t105 -50 q74 0 106 46t32 117q0 72 -35 122.5t-109 50.5q-76 0 -104.5 -47t-28.5 -117z" />
<glyph unicode="&#xbb;" horiz-adv-x="1087" d="M98 125l297 362v11l-297 362h230l274 -360v-11l-272 -364h-232zM496 125l297 362v11l-297 362h229l274 -360v-11l-272 -364h-231z" />
<glyph unicode="&#xbc;" horiz-adv-x="1583" d="M70 1206l297 156v-750h-154v545l-117 -57zM180 -49l948 1464h185l-948 -1464h-185zM922 186v127l301 437h211v-437h69v-127h-69v-186h-140v186h-372zM1069 313h225v316z" />
<glyph unicode="&#xbd;" horiz-adv-x="1595" d="M70 1206l297 156v-750h-154v545l-117 -57zM184 -49l949 1464h184l-948 -1464h-185zM987 0v127q49 55 113.5 105.5t121 98.5t95.5 97t39 107q0 12 -3 28.5t-12.5 30.5t-27 23.5t-43.5 9.5q-53 0 -112.5 -36t-104.5 -93l-35 131q66 59 131 90t137 31q104 0 160.5 -55.5 t56.5 -141.5q0 -59 -26.5 -112.5t-72.5 -104.5t-106.5 -102.5t-128.5 -106.5h334v-127h-516z" />
<glyph unicode="&#xbe;" horiz-adv-x="1585" d="M74 680l24 123q43 -35 80 -56.5t98 -21.5q78 0 114 34t36 93q0 53 -36 83t-136 30h-25v110h31q66 0 97.5 25.5t31.5 70.5q0 29 -16.5 48.5t-67.5 19.5q-53 0 -93 -18.5t-67 -40.5l-22 120q47 29 88 45.5t98 16.5q104 0 162.5 -51t58.5 -131q0 -55 -26.5 -91t-69.5 -63 q63 -23 99 -67t36 -117q0 -47 -16 -90t-51 -77t-89.5 -53.5t-127.5 -19.5q-76 0 -120 20.5t-91 57.5zM225 -49l949 1464h184l-948 -1464h-185zM926 186v127l301 437h211v-437h69v-127h-69v-186h-140v186h-372zM1073 313h225v316z" />
<glyph unicode="&#xbf;" horiz-adv-x="821" d="M88 -131q0 92 40 166t88 150.5t89 170t41 224.5h213q0 -139 -39 -237.5t-85 -173.5t-85 -139.5t-39 -135.5q0 -82 49.5 -115t110.5 -33q66 0 129.5 28.5t99.5 73.5l54 -196q-57 -43 -142.5 -75t-177.5 -32q-76 0 -139.5 24.5t-109.5 68t-71.5 102.5t-25.5 129zM299 831 q0 59 46 101.5t106 42.5q59 0 101 -43t42 -103q0 -57 -43 -99t-102 -42t-104.5 42t-45.5 101z" />
<glyph unicode="&#xc0;" horiz-adv-x="1286" d="M4 2l524 1352h203l578 -1352h-256l-154 393h-510l-139 -393h-246zM420 1630q0 35 16.5 71t44.5 36q8 0 21 -6l368 -207l7 -15l-31 -73l-17 -6l-383 141q-14 4 -20 20t-6 39zM455 580h370l-194 497z" />
<glyph unicode="&#xc1;" horiz-adv-x="1286" d="M4 0l524 1352h203l578 -1352h-256l-154 393h-510l-139 -393h-246zM414 1511l6 15l368 207q12 6 21 6q29 0 45 -36t16 -71q0 -23 -6 -39t-20 -20l-383 -141l-17 6zM455 578h370l-194 497z" />
<glyph unicode="&#xc2;" horiz-adv-x="1286" d="M4 0l524 1352h203l578 -1352h-256l-154 393h-510l-139 -393h-246zM414 1507l6 15l225 202h17l225 -202l6 -15l-33 -59l-14 -6l-193 84l-192 -84l-15 6zM455 578h370l-194 497z" />
<glyph unicode="&#xc3;" horiz-adv-x="1286" d="M4 0l524 1352h203l578 -1352h-256l-154 393h-510l-139 -393h-246zM332 1511q12 37 25.5 71t36 59.5t55 41t83.5 15.5q59 0 130 -14.5t126 -14.5q37 0 76 11.5t80 41.5l25 -47q-6 -33 -19.5 -66.5t-35 -60t-53.5 -44t-77 -17.5q-25 0 -56.5 4t-68 10t-74.5 10.5t-73 4.5 q-47 0 -86 -11.5t-68 -40.5zM455 578h370l-194 497z" />
<glyph unicode="&#xc4;" horiz-adv-x="1286" d="M4 0l524 1352h203l578 -1352h-256l-154 393h-510l-139 -393h-246zM393 1604q0 47 35 83.5t82 36.5t84 -36.5t37 -83.5t-37 -82t-84 -35t-82 35t-35 82zM455 578h370l-194 497zM672 1604q0 47 34.5 83.5t81.5 36.5t84 -36.5t37 -83.5t-36.5 -82t-84.5 -35q-47 0 -81.5 35 t-34.5 82z" />
<glyph unicode="&#xc5;" horiz-adv-x="1300" d="M4 0l518 1300q-39 23 -61.5 61t-22.5 83q0 72 54.5 125t144.5 53t143.5 -55.5t53.5 -126.5q0 -45 -23 -81t-57 -59l571 -1300h-264l-154 414h-510l-139 -414h-254zM463 598h371l-195 477zM559 1446q0 -35 23.5 -60.5t56.5 -25.5q31 0 51.5 24.5t20.5 55.5 q0 33 -21.5 56.5t-54.5 23.5q-35 0 -55.5 -21.5t-20.5 -52.5z" />
<glyph unicode="&#xc6;" horiz-adv-x="1550" d="M-29 0l721 1352h735v-209h-413v-322h276v-209h-276v-403h454v-209h-677v389h-363l-207 -389h-250zM537 594h254v479z" />
<glyph unicode="&#xc7;" horiz-adv-x="1288" d="M104 662q0 145 43 272t128 222t211 150.5t294 55.5q111 0 221.5 -23.5t190.5 -64.5l-59 -213q-66 45 -157 72.5t-208 27.5q-111 0 -189.5 -34.5t-128 -98t-73 -153t-23.5 -197.5q0 -248 105.5 -375t304.5 -127q123 0 224.5 37t166.5 90l62 -203q-78 -47 -183.5 -82.5 t-236.5 -40.5l-37 -61q31 8 59 8q72 0 117 -48t45 -120q0 -41 -19.5 -76.5t-53.5 -64.5t-81 -45t-102 -16q-53 0 -103.5 11t-91.5 27l-2 13l58 98h14q23 -10 58.5 -17.5t70.5 -7.5t62.5 13.5t27.5 48.5q0 37 -25.5 50t-60.5 13q-25 0 -50.5 -4t-47.5 -10l-39 53l90 138 q-150 12 -259.5 70.5t-181 150.5t-106.5 211t-35 250z" />
<glyph unicode="&#xc8;" horiz-adv-x="1083" d="M180 0v1352h783v-205h-547v-328h409v-205h-409v-409h588v-205h-824zM356 1630q0 35 16.5 71t45.5 36q8 0 20 -6l369 -207l6 -15l-31 -73l-16 -6l-383 141q-14 4 -20.5 20t-6.5 39z" />
<glyph unicode="&#xc9;" horiz-adv-x="1083" d="M180 0v1352h783v-205h-547v-328h409v-205h-409v-409h588v-205h-824zM381 1509l6 15l369 207q12 6 20 6q29 0 45.5 -36t16.5 -71q0 -23 -6.5 -39t-20.5 -20l-383 -141l-16 6z" />
<glyph unicode="&#xca;" horiz-adv-x="1083" d="M180 0v1352h783v-205h-547v-328h409v-205h-409v-409h588v-205h-824zM367 1507l6 15l225 202h16l226 -202l6 -15l-33 -59l-14 -6l-193 84l-192 -84l-15 6z" />
<glyph unicode="&#xcb;" horiz-adv-x="1083" d="M180 0v1352h783v-205h-547v-328h409v-205h-409v-409h588v-205h-824zM330 1606q0 47 34.5 83.5t81.5 36.5t84 -36.5t37 -83.5t-36.5 -82t-84.5 -35q-47 0 -81.5 35t-34.5 82zM608 1606q0 47 35 83.5t82 36.5t84 -36.5t37 -83.5t-37 -82t-84 -35t-82 35t-35 82z" />
<glyph unicode="&#xcc;" horiz-adv-x="595" d="M45 1630q0 35 16.5 71t44.5 36q8 0 21 -6l369 -207l6 -15l-31 -73l-16 -6l-383 141q-14 4 -20.5 20t-6.5 39zM180 0v1352h236v-1352h-236z" />
<glyph unicode="&#xcd;" horiz-adv-x="595" d="M94 1509l6 15l369 207q12 6 20 6q29 0 45.5 -36t16.5 -71q0 -23 -6 -39t-21 -20l-383 -141l-16 6zM180 0v1352h236v-1352h-236z" />
<glyph unicode="&#xce;" horiz-adv-x="595" d="M53 1507l6 15l226 202h16l225 -202l6 -15l-32 -59l-15 -6l-192 84l-193 -84l-14 6zM180 0v1352h236v-1352h-236z" />
<glyph unicode="&#xcf;" horiz-adv-x="595" d="M43 1604q0 47 35 83.5t82 36.5t84 -36.5t37 -83.5t-37 -82t-84 -35t-82 35t-35 82zM180 0v1352h236v-1352h-236zM322 1604q0 47 34.5 83.5t81.5 36.5t84 -36.5t37 -83.5t-37 -82t-84 -35t-81.5 35t-34.5 82z" />
<glyph unicode="&#xd0;" horiz-adv-x="1462" d="M41 637v151h152v564q27 2 84 4t120.5 3t122 2t90.5 1q199 0 327 -41t212 -113q109 -94 158 -239.5t49 -321.5q0 -133 -34 -255t-121 -214t-239.5 -146.5t-390.5 -54.5q-86 0 -184 6.5t-194 16.5v637h-152zM428 180q57 -4 110.5 -6t90.5 -2q248 0 361.5 119t113.5 387 q0 121 -23.5 212t-81 152.5t-153.5 92t-240 30.5h-77q-48 0 -101 -2v-375h303v-151h-303v-457z" />
<glyph unicode="&#xd1;" horiz-adv-x="1478" d="M180 0v1352h289l594 -994v994h235v-1352h-288l-594 991v-991h-236zM387 1511q12 37 25.5 71t36 59.5t55.5 41t84 15.5q59 0 129.5 -14.5t126.5 -14.5q37 0 75.5 11.5t79.5 41.5l25 -47q-6 -33 -19.5 -66.5t-35 -60t-53 -44t-76.5 -17.5q-25 0 -56.5 4t-68.5 10t-75 10.5 t-73 4.5q-47 0 -86 -11.5t-67 -40.5z" />
<glyph unicode="&#xd2;" horiz-adv-x="1519" d="M100 659q0 145 44 273.5t128 223.5t207 150.5t281 55.5q160 0 282.5 -55.5t206.5 -150.5t127 -220t43 -262q0 -135 -42 -261t-127 -223.5t-211 -156t-294 -58.5q-164 0 -284.5 55.5t-200.5 149.5t-120 218t-40 261zM352 680q0 -250 102.5 -377t295.5 -127q113 0 191.5 38 t129.5 104.5t74.5 156.5t23.5 193q0 111 -24.5 200.5t-75.5 155.5t-130 101.5t-185 35.5q-109 0 -185.5 -35.5t-125 -99t-70 -152t-21.5 -194.5zM471 1630q0 35 16.5 71t44.5 36q8 0 21 -6l369 -207l6 -15l-31 -73l-16 -6l-383 141q-14 4 -20.5 20t-6.5 39z" />
<glyph unicode="&#xd3;" horiz-adv-x="1519" d="M100 659q0 145 44 273.5t128 223.5t207 150.5t281 55.5q160 0 282.5 -55.5t206.5 -150.5t127 -220t43 -262q0 -135 -42 -261t-127 -223.5t-211 -156t-294 -58.5q-164 0 -284.5 55.5t-200.5 149.5t-120 218t-40 261zM352 680q0 -250 102.5 -377t295.5 -127q113 0 191.5 38 t129.5 104.5t74.5 156.5t23.5 193q0 111 -24.5 200.5t-75.5 155.5t-130 101.5t-185 35.5q-109 0 -185.5 -35.5t-125 -99t-70 -152t-21.5 -194.5zM610 1509l6 15l369 207q12 6 21 6q29 0 45 -36t16 -71q0 -23 -6 -39t-21 -20l-383 -141l-16 6z" />
<glyph unicode="&#xd4;" horiz-adv-x="1519" d="M100 659q0 145 44 273.5t128 223.5t207 150.5t281 55.5q160 0 282.5 -55.5t206.5 -150.5t127 -220t43 -262q0 -135 -42 -261t-127 -223.5t-211 -156t-294 -58.5q-164 0 -284.5 55.5t-200.5 149.5t-120 218t-40 261zM352 680q0 -250 102.5 -377t295.5 -127q113 0 191.5 38 t129.5 104.5t74.5 156.5t23.5 193q0 111 -24.5 200.5t-75.5 155.5t-130 101.5t-185 35.5q-109 0 -185.5 -35.5t-125 -99t-70 -152t-21.5 -194.5zM541 1507l6 15l225 202h16l226 -202l6 -15l-33 -59l-14 -6l-193 84l-192 -84l-15 6z" />
<glyph unicode="&#xd5;" horiz-adv-x="1519" d="M100 659q0 145 44 273.5t128 223.5t207 150.5t281 55.5q160 0 282.5 -55.5t206.5 -150.5t127 -220t43 -262q0 -135 -42 -261t-127 -223.5t-211 -156t-294 -58.5q-164 0 -284.5 55.5t-200.5 149.5t-120 218t-40 261zM352 680q0 -250 102.5 -377t295.5 -127q113 0 191.5 38 t129.5 104.5t74.5 156.5t23.5 193q0 111 -24.5 200.5t-75.5 155.5t-130 101.5t-185 35.5q-109 0 -185.5 -35.5t-125 -99t-70 -152t-21.5 -194.5zM442 1511q12 37 25.5 71t36 59.5t55.5 41t84 15.5q59 0 130 -14.5t126 -14.5q37 0 76 11.5t80 41.5l24 -47q-6 -33 -19 -66.5 t-34.5 -60t-53.5 -44t-77 -17.5q-25 0 -56.5 4t-68.5 10t-75 10.5t-72 4.5q-47 0 -86 -11.5t-68 -40.5z" />
<glyph unicode="&#xd6;" horiz-adv-x="1519" d="M100 659q0 145 44 273.5t128 223.5t207 150.5t281 55.5q160 0 282.5 -55.5t206.5 -150.5t127 -220t43 -262q0 -135 -42 -261t-127 -223.5t-211 -156t-294 -58.5q-164 0 -284.5 55.5t-200.5 149.5t-120 218t-40 261zM352 680q0 -250 102.5 -377t295.5 -127q113 0 191.5 38 t129.5 104.5t74.5 156.5t23.5 193q0 111 -24.5 200.5t-75.5 155.5t-130 101.5t-185 35.5q-109 0 -185.5 -35.5t-125 -99t-70 -152t-21.5 -194.5zM504 1604q0 47 34.5 83.5t82.5 36.5q47 0 83.5 -36.5t36.5 -83.5t-36.5 -82t-83.5 -35t-82 35t-35 82zM782 1604q0 47 35 83.5 t82 36.5t84 -36.5t37 -83.5t-37 -82t-84 -35t-82 35t-35 82z" />
<glyph unicode="&#xd7;" horiz-adv-x="933" d="M129 258l231 231l-231 230l107 106l231 -229l233 233l107 -106l-234 -234l234 -235l-105 -104l-235 233l-231 -231z" />
<glyph unicode="&#xd8;" horiz-adv-x="1521" d="M72 41l155 184q-63 90 -94 201t-31 233q0 145 44 273.5t128 223.5t207 150.5t281 55.5q104 0 192 -24.5t160 -67.5l137 162l166 -127l-147 -172q76 -94 113.5 -212t37.5 -247q0 -135 -42 -261t-127 -223.5t-211 -156t-293 -58.5q-113 0 -206 27t-165 76l-150 -176z M354 680q0 -156 39 -260l582 688q-90 53 -219 53q-109 0 -185.5 -35.5t-125 -99t-70 -152t-21.5 -194.5zM518 244q92 -68 234 -68q113 0 191.5 38t129.5 104.5t74.5 156.5t23.5 193q0 166 -55 282z" />
<glyph unicode="&#xd9;" horiz-adv-x="1443" d="M166 475v877h235v-828q0 -186 86 -267t240 -81t241 81t87 267v828h225v-877q0 -100 -33 -190t-101.5 -159t-176 -109t-254.5 -40t-252 40t-171.5 109t-96 159t-29.5 190zM467 1630q0 35 16.5 71t44.5 36q8 0 21 -6l369 -207l6 -15l-31 -73l-16 -6l-383 141 q-14 4 -20.5 20t-6.5 39z" />
<glyph unicode="&#xda;" horiz-adv-x="1443" d="M166 475v877h235v-828q0 -186 86 -267t240 -81t241 81t87 267v828h225v-877q0 -100 -33 -190t-101.5 -159t-176 -109t-254.5 -40t-252 40t-171.5 109t-96 159t-29.5 190zM526 1509l6 15l369 207q12 6 21 6q29 0 45 -36t16 -71q0 -23 -6 -39t-21 -20l-383 -141l-16 6z" />
<glyph unicode="&#xdb;" horiz-adv-x="1443" d="M166 475v877h235v-828q0 -186 86 -267t240 -81t241 81t87 267v828h225v-877q0 -100 -33 -190t-101.5 -159t-176 -109t-254.5 -40t-252 40t-171.5 109t-96 159t-29.5 190zM475 1507l6 15l226 202h16l225 -202l6 -15l-32 -59l-15 -6l-192 84l-193 -84l-14 6z" />
<glyph unicode="&#xdc;" horiz-adv-x="1443" d="M166 475v877h235v-828q0 -186 86 -267t240 -81t241 81t87 267v828h225v-877q0 -100 -33 -190t-101.5 -159t-176 -109t-254.5 -40t-252 40t-171.5 109t-96 159t-29.5 190zM489 1604q0 47 35 83.5t82 36.5t84 -36.5t37 -83.5t-37 -82t-84 -35t-82 35t-35 82zM768 1604 q0 47 35 83.5t82 36.5t84 -36.5t37 -83.5t-37 -82t-84 -35t-82 35t-35 82z" />
<glyph unicode="&#xdd;" horiz-adv-x="1155" d="M-25 1352h265l346 -613l332 613h260l-482 -797v-555h-235v547zM432 1509l6 15l369 207q12 6 20 6q29 0 45.5 -36t16.5 -71q0 -23 -6 -39t-21 -20l-383 -141l-16 6z" />
<glyph unicode="&#xde;" horiz-adv-x="1089" d="M180 0v1352h236v-226h90q115 0 209 -27.5t161.5 -82.5t104.5 -136t37 -188q0 -86 -28.5 -161.5t-86 -133t-146.5 -91.5t-208 -34h-69q-34 0 -64 2v-274h-236zM416 471q29 -2 60 -2h67q111 0 167 61.5t56 178.5q0 98 -50 159.5t-177 61.5h-64q-31 0 -59 -2v-457z" />
<glyph unicode="&#xdf;" horiz-adv-x="1132" d="M141 0v995q0 115 26 209t77 162t128 104.5t179 36.5q76 0 137.5 -23.5t104.5 -61.5t66.5 -88t23.5 -103q0 -70 -33 -128.5t-72 -110.5t-71.5 -100t-32.5 -93q0 -43 29.5 -75t74.5 -62.5t98.5 -63.5t98.5 -77t74.5 -101.5t29.5 -136.5q0 -92 -33.5 -157t-83 -104.5 t-106.5 -58t-106 -18.5q-74 0 -136.5 27.5t-103.5 62.5l59 215q35 -59 84 -98t111 -39q41 0 71.5 36.5t30.5 110.5q0 72 -28.5 121t-71.5 85t-94 65.5t-94 63.5t-72 78t-29 111q0 72 30 127.5t65.5 104.5t65.5 98t30 107q0 49 -32 84.5t-93 35.5q-66 0 -104 -28.5 t-59.5 -76.5t-27.5 -110.5t-6 -130.5v-995h-205z" />
<glyph unicode="&#xe0;" horiz-adv-x="1026" d="M70 248q0 84 35.5 150.5t103 112.5t162 70.5t211.5 24.5h88v31q0 80 -52 117q-53 37 -165 37q-152 0 -271 -68l-43 170q137 80 332 80q205 0 311 -84q49 -39 81 -100.5t32 -147.5v-641h-180l-17 129h-8q-55 -70 -150.5 -112t-193.5 -42q-129 0 -202.5 75t-73.5 198z M215 1288q0 35 16.5 71t44.5 36q8 0 21 -6l369 -207l6 -15l-31 -73l-16 -7l-383 142q-14 4 -20.5 20t-6.5 39zM309 281q0 -123 125 -123q66 0 131.5 31.5t104.5 84.5v187h-39q-168 0 -245 -43t-77 -137z" />
<glyph unicode="&#xe1;" horiz-adv-x="1026" d="M70 248q0 84 35.5 150.5t103 112.5t162 70.5t211.5 24.5h88v31q0 80 -52 117q-53 37 -165 37q-152 0 -271 -68l-43 170q137 80 332 80q205 0 311 -84q49 -39 81 -100.5t32 -147.5v-641h-180l-17 129h-8q-55 -70 -150.5 -112t-193.5 -42q-129 0 -202.5 75t-73.5 198z M309 281q0 -123 125 -123q66 0 131.5 31.5t104.5 84.5v187h-39q-168 0 -245 -43t-77 -137zM367 1169l6 15l368 207q12 6 21 6q29 0 45 -36t16 -71q0 -23 -6 -39t-20 -20l-383 -141l-17 6z" />
<glyph unicode="&#xe2;" horiz-adv-x="1026" d="M70 248q0 84 35.5 150.5t103 112.5t162 70.5t211.5 24.5h88v31q0 80 -52 117q-53 37 -165 37q-152 0 -271 -68l-43 170q137 80 332 80q205 0 311 -84q49 -39 81 -100.5t32 -147.5v-641h-180l-17 129h-8q-55 -70 -150.5 -112t-193.5 -42q-129 0 -202.5 75t-73.5 198z M256 1161l6 15l225 202h17l225 -202l6 -15l-33 -59l-14 -6l-192 84l-193 -84l-14 6zM309 281q0 -123 125 -123q66 0 131.5 31.5t104.5 84.5v187h-39q-168 0 -245 -43t-77 -137z" />
<glyph unicode="&#xe3;" horiz-adv-x="1026" d="M70 248q0 84 35.5 150.5t103 112.5t162 70.5t211.5 24.5h88v31q0 80 -52 117q-53 37 -165 37q-152 0 -271 -68l-43 170q137 80 332 80q205 0 311 -84q49 -39 81 -100.5t32 -147.5v-641h-180l-17 129h-8q-55 -70 -150.5 -112t-193.5 -42q-129 0 -202.5 75t-73.5 198z M193 1184q12 37 25 70.5t35.5 59t55.5 41t84 15.5q59 0 130 -14.5t126 -14.5q37 0 76 11.5t80 42.5l24 -47q-6 -33 -19 -67t-34.5 -60.5t-53.5 -44t-77 -17.5q-25 0 -56.5 4t-68.5 10.5t-74.5 10.5t-72.5 4q-47 0 -86 -11.5t-68 -39.5zM309 281q0 -123 125 -123 q66 0 131.5 31.5t104.5 84.5v187h-39q-168 0 -245 -43t-77 -137z" />
<glyph unicode="&#xe4;" horiz-adv-x="1026" d="M70 248q0 84 35.5 150.5t103 112.5t162 70.5t211.5 24.5h88v31q0 80 -52 117q-53 37 -165 37q-152 0 -271 -68l-43 170q137 80 332 80q205 0 311 -84q49 -39 81 -100.5t32 -147.5v-641h-180l-17 129h-8q-55 -70 -150.5 -112t-193.5 -42q-129 0 -202.5 75t-73.5 198z M258 1253q0 47 35 84t82 37t84 -37t37 -84t-37 -81.5t-84 -34.5t-82 34.5t-35 81.5zM309 281q0 -123 125 -123q66 0 131.5 31.5t104.5 84.5v187h-39q-168 0 -245 -43t-77 -137zM537 1253q0 47 34.5 84t81.5 37t84 -37t37 -84t-37 -81.5t-84 -34.5t-81.5 34.5t-34.5 81.5z " />
<glyph unicode="&#xe5;" horiz-adv-x="1026" d="M70 248q0 84 35.5 150.5t103 112.5t162 70.5t211.5 24.5h88v31q0 80 -52 117q-53 37 -165 37q-152 0 -271 -68l-43 170q137 80 332 80q205 0 311 -84q49 -39 81 -100.5t32 -147.5v-641h-180l-17 129h-8q-55 -70 -150.5 -112t-193.5 -42q-129 0 -202.5 75t-73.5 198z M309 281q0 -123 125 -123q66 0 131.5 31.5t104.5 84.5v187h-39q-168 0 -245 -43t-77 -137zM336 1249q0 66 50 118t138 52q45 0 80 -15t59.5 -40t38 -55.5t13.5 -63.5q0 -61 -48.5 -112.5t-140.5 -51.5q-49 0 -84.5 15.5t-59.5 39t-35 53t-11 60.5zM453 1251 q0 -29 20.5 -54.5t52.5 -25.5q33 0 51.5 24t18.5 50q0 29 -19.5 56.5t-54.5 27.5t-52 -24.5t-17 -53.5z" />
<glyph unicode="&#xe6;" horiz-adv-x="1642" d="M70 248q0 117 55 187.5t135 108.5t169 50t155 12h86v19q0 55 -16.5 84.5t-47.5 50.5q-27 16 -56.5 23.5t-76.5 7.5q-90 0 -157.5 -18.5t-133.5 -49.5l-43 170q147 80 346 80q45 0 93.5 -6t94.5 -21.5t87 -41t71 -64.5q61 61 148.5 97t198.5 36q180 0 278 -91t98 -257 q0 -23 -3 -48.5t-8 -50t-12 -44t-15 -31.5h-596q4 -61 22.5 -115.5t53 -94.5t84.5 -63.5t118 -23.5q76 0 161 28.5t144 71.5l37 -168q-27 -16 -65.5 -35.5t-88 -36t-105.5 -28t-118 -11.5q-127 0 -220 48.5t-152 128.5q-86 -98 -200 -137.5t-237 -39.5q-72 0 -125 20.5 t-88 57.5t-53 87.5t-18 107.5zM309 266q0 -53 34 -80.5t91 -27.5q59 0 127 29.5t109 86.5v191h-15q-59 0 -120.5 -6t-111.5 -26.5t-82 -59.5t-32 -107zM938 610h391q2 10 2 19v18q0 74 -48 112t-112 38q-92 0 -150 -52.5t-83 -134.5z" />
<glyph unicode="&#xe7;" horiz-adv-x="1003" d="M88 479q0 98 27.5 187.5t87 158t151.5 108.5t221 40q98 0 192.5 -22.5t152.5 -59.5l-50 -182q-23 16 -56.5 32.5t-72.5 28.5t-81 19.5t-78 7.5q-70 0 -118 -26t-78 -67.5t-43 -97t-13 -114.5q0 -70 16 -130.5t49 -105.5t83 -71.5t116 -26.5q74 0 157 29.5t138 82.5 l41 -192q-53 -35 -139 -64.5t-187 -36.5l-37 -61q31 8 60 8q72 0 116.5 -48t44.5 -120q0 -41 -19 -76.5t-53 -64.5t-81 -45t-103 -16q-53 0 -103 11t-91 27l-2 13l57 98h15q23 -10 58.5 -17.5t70.5 -7.5t62.5 13.5t27.5 48.5q0 37 -26 50t-60 13q-25 0 -50.5 -4t-48.5 -10 l-39 53l91 138q-102 12 -178 56t-127.5 110.5t-76 152.5t-24.5 180z" />
<glyph unicode="&#xe8;" horiz-adv-x="1034" d="M84 471q0 100 31.5 191.5t93 161t153 109.5t207.5 40q180 0 278.5 -91t98.5 -257q0 -23 -3 -48.5t-8 -50t-12.5 -44t-15.5 -31.5h-596q4 -61 22.5 -115.5t53.5 -94.5t85 -63.5t118 -23.5q76 0 161 28.5t144 71.5l37 -168q-27 -16 -66 -35.5t-88 -36t-105.5 -28 t-117.5 -11.5q-115 0 -203 40t-147.5 109t-90 159t-30.5 188zM266 1288q0 35 16.5 71t45.5 36q8 0 20 -6l369 -207l6 -15l-31 -73l-16 -7l-383 142q-14 4 -20.5 20t-6.5 39zM330 610h391q2 10 2 19v18q0 74 -48 112t-112 38q-92 0 -150 -52.5t-83 -134.5z" />
<glyph unicode="&#xe9;" horiz-adv-x="1034" d="M84 471q0 100 31.5 191.5t93 161t153 109.5t207.5 40q180 0 278.5 -91t98.5 -257q0 -23 -3 -48.5t-8 -50t-12.5 -44t-15.5 -31.5h-596q4 -61 22.5 -115.5t53.5 -94.5t85 -63.5t118 -23.5q76 0 161 28.5t144 71.5l37 -168q-27 -16 -66 -35.5t-88 -36t-105.5 -28 t-117.5 -11.5q-115 0 -203 40t-147.5 109t-90 159t-30.5 188zM330 610h391q2 10 2 19v18q0 74 -48 112t-112 38q-92 0 -150 -52.5t-83 -134.5zM379 1169l6 15l369 207q12 6 20 6q29 0 45.5 -37t16.5 -70q0 -23 -6.5 -39t-20.5 -20l-383 -141l-16 6z" />
<glyph unicode="&#xea;" horiz-adv-x="1034" d="M84 471q0 100 31.5 191.5t93 161t153 109.5t207.5 40q180 0 278.5 -91t98.5 -257q0 -23 -3 -48.5t-8 -50t-12.5 -44t-15.5 -31.5h-596q4 -61 22.5 -115.5t53.5 -94.5t85 -63.5t118 -23.5q76 0 161 28.5t144 71.5l37 -168q-27 -16 -66 -35.5t-88 -36t-105.5 -28 t-117.5 -11.5q-115 0 -203 40t-147.5 109t-90 159t-30.5 188zM303 1161l6 15l226 202h16l225 -202l6 -15l-32 -59l-15 -6l-192 84l-193 -84l-14 6zM330 610h391q2 10 2 19v18q0 74 -48 112t-112 38q-92 0 -150 -52.5t-83 -134.5z" />
<glyph unicode="&#xeb;" horiz-adv-x="1034" d="M84 471q0 100 31.5 191.5t93 161t153 109.5t207.5 40q180 0 278.5 -91t98.5 -257q0 -23 -3 -48.5t-8 -50t-12.5 -44t-15.5 -31.5h-596q4 -61 22.5 -115.5t53.5 -94.5t85 -63.5t118 -23.5q76 0 161 28.5t144 71.5l37 -168q-27 -16 -66 -35.5t-88 -36t-105.5 -28 t-117.5 -11.5q-115 0 -203 40t-147.5 109t-90 159t-30.5 188zM283 1253q0 47 34.5 84t81.5 37t84 -37t37 -84t-37 -81.5t-84 -34.5t-81.5 34.5t-34.5 81.5zM330 610h391q2 10 2 19v18q0 74 -48 112t-112 38q-92 0 -150 -52.5t-83 -134.5zM561 1253q0 47 35 84t82 37t84 -37 t37 -84t-37 -81.5t-84 -34.5t-82 34.5t-35 81.5z" />
<glyph unicode="&#xec;" horiz-adv-x="507" d="M-49 1288q0 35 16.5 71t44.5 36q8 0 21 -6l368 -207l7 -15l-31 -73l-17 -7l-383 142q-14 4 -20 20t-6 39zM141 0v942h226v-942h-226z" />
<glyph unicode="&#xed;" horiz-adv-x="507" d="M49 1169l6 15l369 207q12 6 20 6q29 0 45.5 -36t16.5 -71q0 -23 -6 -39t-21 -20l-383 -141l-16 6zM141 0v942h226v-942h-226z" />
<glyph unicode="&#xee;" horiz-adv-x="507" d="M8 1161l6 15l226 202h16l225 -202l6 -15l-32 -59l-15 -6l-192 84l-193 -84l-14 6zM141 0v942h226v-942h-226z" />
<glyph unicode="&#xef;" horiz-adv-x="507" d="M-6 1253q0 47 34.5 84t82.5 37q47 0 83.5 -37t36.5 -84t-36.5 -81.5t-83.5 -34.5t-82 34.5t-35 81.5zM141 0v942h226v-942h-226zM272 1253q0 47 35 84t82 37t84 -37t37 -84t-37 -81.5t-84 -34.5t-82 34.5t-35 81.5z" />
<glyph unicode="&#xf0;" horiz-adv-x="1146" d="M86 475q0 100 28.5 190.5t86 159t141.5 108.5t193 40q104 0 173.5 -36t106.5 -97l6 2q-10 72 -44 156.5t-85 170.5l-237 -59l-43 133l198 51q-53 72 -113.5 129.5t-119.5 92.5h301q37 -35 72.5 -77t68.5 -89l252 67l43 -139l-217 -55q68 -129 110 -288t42 -341 q0 -125 -24 -236.5t-79 -196.5t-147 -135.5t-232 -50.5q-131 0 -222 43t-148.5 114t-84 161t-26.5 182zM328 481q0 -66 13 -126t43 -107t75 -75t106 -28q59 0 103.5 26t73 70t42 101t13.5 121q0 66 -14.5 126t-44 106t-75 74t-108.5 28q-59 0 -102 -26t-71 -69t-41 -100.5 t-13 -120.5z" />
<glyph unicode="&#xf1;" horiz-adv-x="1120" d="M141 0v942h176l11 -139h8q43 86 134 128t196 42q68 0 127 -17.5t105 -56.5t72.5 -102.5t26.5 -155.5v-641h-225v623q0 168 -143 168q-35 0 -75 -12.5t-77 -36t-66.5 -58.5t-43.5 -80v-604h-226zM233 1184q12 37 25.5 70.5t36 59t55.5 41t84 15.5q59 0 130 -14.5 t126 -14.5q37 0 76 11.5t80 42.5l24 -47q-6 -33 -19 -67t-34.5 -60.5t-53.5 -44t-77 -17.5q-25 0 -56.5 4t-68.5 10.5t-74.5 10.5t-72.5 4q-47 0 -86 -11.5t-68 -39.5z" />
<glyph unicode="&#xf2;" horiz-adv-x="1124" d="M86 475q0 100 28.5 190.5t87 159t148.5 108.5t211 40q125 0 215 -42t148.5 -112.5t86 -162t27.5 -191.5t-27.5 -189.5t-86 -156t-147.5 -105.5t-210 -39q-125 0 -215 41t-149.5 110t-88 159t-28.5 190zM264 1288q0 35 16.5 71t45.5 36q8 0 20 -6l369 -207l6 -15l-31 -73 l-16 -7l-383 142q-14 4 -20.5 20t-6.5 39zM328 481q0 -66 13 -126t43 -107t75 -75t106 -28q59 0 103.5 26t73 70t42 101t13.5 121q0 66 -14.5 126t-44 106t-75 74t-108.5 28q-59 0 -102 -26t-71 -69t-41 -100.5t-13 -120.5z" />
<glyph unicode="&#xf3;" horiz-adv-x="1124" d="M86 475q0 100 28.5 190.5t87 159t148.5 108.5t211 40q125 0 215 -42t148.5 -112.5t86 -162t27.5 -191.5t-27.5 -189.5t-86 -156t-147.5 -105.5t-210 -39q-125 0 -215 41t-149.5 110t-88 159t-28.5 190zM328 481q0 -66 13 -126t43 -107t75 -75t106 -28q59 0 103.5 26 t73 70t42 101t13.5 121q0 66 -14.5 126t-44 106t-75 74t-108.5 28q-59 0 -102 -26t-71 -69t-41 -100.5t-13 -120.5zM393 1169l6 15l369 207q12 6 20 6q29 0 45.5 -36t16.5 -71q0 -23 -6 -39t-21 -20l-383 -141l-16 6z" />
<glyph unicode="&#xf4;" horiz-adv-x="1124" d="M86 475q0 100 28.5 190.5t87 159t148.5 108.5t211 40q125 0 215 -42t148.5 -112.5t86 -162t27.5 -191.5t-27.5 -189.5t-86 -156t-147.5 -105.5t-210 -39q-125 0 -215 41t-149.5 110t-88 159t-28.5 190zM328 481q0 -66 13 -126t43 -107t75 -75t106 -28q59 0 103.5 26 t73 70t42 101t13.5 121q0 66 -14.5 126t-44 106t-75 74t-108.5 28q-59 0 -102 -26t-71 -69t-41 -100.5t-13 -120.5zM340 1161l6 15l225 202h17l225 -202l6 -15l-33 -59l-14 -6l-192 84l-193 -84l-14 6z" />
<glyph unicode="&#xf5;" horiz-adv-x="1124" d="M86 475q0 100 28.5 190.5t87 159t148.5 108.5t211 40q125 0 215 -42t148.5 -112.5t86 -162t27.5 -191.5t-27.5 -189.5t-86 -156t-147.5 -105.5t-210 -39q-125 0 -215 41t-149.5 110t-88 159t-28.5 190zM223 1184q12 37 25.5 70.5t36 59t55.5 41t84 15.5q59 0 130 -14.5 t126 -14.5q37 0 76 11.5t80 42.5l24 -47q-6 -33 -19.5 -67t-35 -60.5t-53 -44t-76.5 -17.5q-25 0 -56.5 4t-68.5 10.5t-75 10.5t-73 4q-47 0 -85.5 -11.5t-67.5 -39.5zM328 481q0 -66 13 -126t43 -107t75 -75t106 -28q59 0 103.5 26t73 70t42 101t13.5 121q0 66 -14.5 126 t-44 106t-75 74t-108.5 28q-59 0 -102 -26t-71 -69t-41 -100.5t-13 -120.5z" />
<glyph unicode="&#xf6;" horiz-adv-x="1124" d="M86 475q0 100 28.5 190.5t87 159t148.5 108.5t211 40q125 0 215 -42t148.5 -112.5t86 -162t27.5 -191.5t-27.5 -189.5t-86 -156t-147.5 -105.5t-210 -39q-125 0 -215 41t-149.5 110t-88 159t-28.5 190zM307 1253q0 47 35 84t82 37t84 -37t37 -84t-37 -81.5t-84 -34.5 t-82 34.5t-35 81.5zM328 481q0 -66 13 -126t43 -107t75 -75t106 -28q59 0 103.5 26t73 70t42 101t13.5 121q0 66 -14.5 126t-44 106t-75 74t-108.5 28q-59 0 -102 -26t-71 -69t-41 -100.5t-13 -120.5zM586 1253q0 47 34.5 84t81.5 37t84 -37t37 -84t-36.5 -81.5t-84.5 -34.5 q-47 0 -81.5 34.5t-34.5 81.5z" />
<glyph unicode="&#xf7;" horiz-adv-x="1050" d="M102 406v167h848v-167h-848zM401 131q0 29 11.5 55.5t32 48t46 34t56.5 12.5q29 0 55.5 -12.5t48 -34t33.5 -48t12 -55.5q0 -31 -12 -56.5t-33.5 -46t-48.5 -31.5t-55 -11q-59 0 -102.5 43t-43.5 102zM401 844q0 29 11.5 55.5t32 48t46 33.5t56.5 12q29 0 55.5 -12 t48 -33.5t33.5 -48.5t12 -55q0 -31 -12 -56.5t-33.5 -46t-48.5 -32t-55 -11.5q-59 0 -102.5 43.5t-43.5 102.5z" />
<glyph unicode="&#xf8;" horiz-adv-x="1126" d="M66 25l112 129q-47 66 -69.5 147.5t-22.5 173.5q0 100 28.5 190.5t87 159t148.5 108.5t211 40q84 0 151.5 -19.5t121.5 -54.5l104 119l121 -90l-117 -133q49 -70 72.5 -154t23.5 -176q0 -100 -27.5 -189.5t-86 -156t-147.5 -105.5t-210 -39q-86 0 -154.5 19.5 t-121.5 54.5l-111 -127zM328 481q0 -88 20 -155l361 407q-29 29 -68 46.5t-86 17.5q-59 0 -102 -26t-71 -69t-41 -100.5t-13 -120.5zM412 211q59 -66 153 -66q59 0 103.5 26t73 70t42 101t13.5 121q0 86 -25 160z" />
<glyph unicode="&#xf9;" d="M133 301v641h225v-612q0 -84 44 -128t114 -44q72 0 131.5 48t87.5 138v598h228v-942h-177l-12 131h-8q-23 -47 -57.5 -76.5t-76.5 -47t-87 -25t-88 -7.5q-68 0 -126.5 16.5t-102.5 54.5t-69.5 100.5t-25.5 154.5zM252 1288q0 35 16.5 71t44.5 36q8 0 21 -6l368 -207 l7 -15l-31 -73l-16 -7l-383 142q-14 4 -20.5 20t-6.5 39z" />
<glyph unicode="&#xfa;" d="M133 301v641h225v-612q0 -84 44 -128t114 -44q72 0 131.5 48t87.5 138v598h228v-942h-177l-12 131h-8q-23 -47 -57.5 -76.5t-76.5 -47t-87 -25t-88 -7.5q-68 0 -126.5 16.5t-102.5 54.5t-69.5 100.5t-25.5 154.5zM328 1169l6 15l368 207q12 6 21 6q29 0 45 -36t16 -71 q0 -23 -6 -39t-20 -20l-383 -141l-17 6z" />
<glyph unicode="&#xfb;" d="M133 301v641h225v-612q0 -84 44 -128t114 -44q72 0 131.5 48t87.5 138v598h228v-942h-177l-12 131h-8q-23 -47 -57.5 -76.5t-76.5 -47t-87 -25t-88 -7.5q-68 0 -126.5 16.5t-102.5 54.5t-69.5 100.5t-25.5 154.5zM299 1161l6 15l225 202h17l225 -202l6 -15l-33 -59 l-14 -6l-192 84l-193 -84l-14 6z" />
<glyph unicode="&#xfc;" d="M133 301v641h225v-612q0 -84 44 -128t114 -44q72 0 131.5 48t87.5 138v598h228v-942h-177l-12 131h-8q-23 -47 -57.5 -76.5t-76.5 -47t-87 -25t-88 -7.5q-68 0 -126.5 16.5t-102.5 54.5t-69.5 100.5t-25.5 154.5zM281 1253q0 47 34.5 84t81.5 37t84 -37t37 -84t-37 -81.5 t-84 -34.5t-81.5 34.5t-34.5 81.5zM559 1253q0 47 35 84t82 37t84 -37t37 -84t-37 -81.5t-84 -34.5t-82 34.5t-35 81.5z" />
<glyph unicode="&#xfd;" horiz-adv-x="1062" d="M-14 942h235l328 -670l262 670h217l-389 -950q-29 -72 -79 -161t-118.5 -168t-154.5 -133t-187 -54q-16 0 -24 1t-19 5l-39 176q6 -2 14.5 -4t35.5 -2q39 0 76.5 8t76.5 33q74 47 128 131t106 207zM383 1169l6 15l369 207q12 6 20 6q29 0 45.5 -36t16.5 -71 q0 -23 -6.5 -39t-20.5 -20l-383 -141l-16 6z" />
<glyph unicode="&#xfe;" horiz-adv-x="1177" d="M141 -532v2048h217v-682h9q25 29 59.5 54t74.5 43.5t83 30t82 11.5q111 0 190.5 -42t131.5 -111.5t77 -161t25 -189.5q0 -100 -26 -190.5t-79 -158t-133 -106.5t-190 -39q-92 0 -171 27t-126 86v-620h-224zM365 268q61 -76 125.5 -95t117.5 -19q68 0 116 24.5t80 66.5 t47 98t15 122q0 61 -13 121.5t-43 107.5t-75 77t-106 30q-31 0 -68 -9.5t-72.5 -26.5t-68.5 -42t-55 -55v-400z" />
<glyph unicode="&#xff;" horiz-adv-x="1062" d="M-14 942h235l328 -670l262 670h217l-389 -950q-29 -72 -79 -161t-118.5 -168t-154.5 -133t-187 -54q-16 0 -24 1t-19 5l-39 176q6 -2 14.5 -4t35.5 -2q39 0 76.5 8t76.5 33q74 47 128 131t106 207zM250 1253q0 47 34.5 84t82.5 37q47 0 83.5 -37t36.5 -84t-36.5 -81.5 t-83.5 -34.5t-82 34.5t-35 81.5zM528 1253q0 47 35 84t82 37t84 -37t37 -84t-37 -81.5t-84 -34.5t-82 34.5t-35 81.5z" />
<glyph unicode="&#x152;" horiz-adv-x="1730" d="M100 659q0 145 44 273.5t128 223.5t207 150.5t281 55.5q39 0 75.5 -3t71.5 -7h703v-205h-508v-328h371v-205h-371v-409h549v-205h-709q-90 -25 -197 -25q-164 0 -284.5 55.5t-200.5 149.5t-120 218t-40 261zM352 680q0 -252 102.5 -380t295.5 -128q63 0 116 18v957 q-53 18 -112 18q-109 0 -185.5 -35.5t-125 -100t-70 -154t-21.5 -195.5z" />
<glyph unicode="&#x153;" horiz-adv-x="1728" d="M86 475q0 100 28.5 190.5t87 159t148.5 108.5t211 40q119 0 208 -43t142 -137q121 180 353 180q180 0 278 -91t98 -257q0 -23 -3 -48.5t-8 -50t-12 -44t-15 -31.5h-596q4 -61 22.5 -115.5t53 -94.5t85 -63.5t117.5 -23.5q76 0 161 28.5t144 71.5l37 -168 q-27 -16 -65.5 -35.5t-88 -36t-105.5 -28t-118 -11.5q-109 0 -195.5 41t-140.5 131q-53 -94 -141 -133t-205 -39q-125 0 -215 41t-149.5 110t-88 159t-28.5 190zM328 481q0 -66 13 -126t43 -107t75 -75t106 -28q59 0 103.5 26t73 70t42 101t13.5 121q0 66 -14.5 126t-44 106 t-75 74t-108.5 28q-59 0 -102 -26t-71 -69t-41 -100.5t-13 -120.5zM1024 610h391q2 10 2 19v18q0 74 -48 112t-112 38q-92 0 -150 -52.5t-83 -134.5z" />
<glyph unicode="&#x178;" horiz-adv-x="1155" d="M-25 1352h265l346 -613l332 613h260l-482 -797v-555h-235v547zM328 1604q0 47 34.5 83.5t81.5 36.5t84 -36.5t37 -83.5t-36.5 -82t-84.5 -35q-47 0 -81.5 35t-34.5 82zM606 1604q0 47 35 83.5t82 36.5t84 -36.5t37 -83.5t-37 -82t-84 -35t-82 35t-35 82z" />
<glyph unicode="&#x2c6;" horiz-adv-x="479" d="M0 1161l6 15l225 202h17l225 -202l6 -15l-33 -59l-14 -6l-192 84l-193 -84l-14 6z" />
<glyph unicode="&#x2dc;" horiz-adv-x="636" d="M0 1163q12 37 26.5 71t36 59.5t54.5 41t84 15.5q59 0 129.5 -14.5t126.5 -14.5q37 0 75.5 11t79.5 42l25 -47q-6 -33 -19.5 -66.5t-35 -60t-53 -44t-76.5 -17.5q-25 0 -56.5 4t-68.5 10t-75 10t-73 4q-47 0 -86 -11t-67 -40z" />
<glyph unicode="&#x2000;" horiz-adv-x="868" />
<glyph unicode="&#x2001;" horiz-adv-x="1738" />
<glyph unicode="&#x2002;" horiz-adv-x="868" />
<glyph unicode="&#x2003;" horiz-adv-x="1738" />
<glyph unicode="&#x2004;" horiz-adv-x="579" />
<glyph unicode="&#x2005;" horiz-adv-x="434" />
<glyph unicode="&#x2006;" horiz-adv-x="288" />
<glyph unicode="&#x2007;" horiz-adv-x="288" />
<glyph unicode="&#x2008;" horiz-adv-x="217" />
<glyph unicode="&#x2009;" horiz-adv-x="346" />
<glyph unicode="&#x200a;" horiz-adv-x="96" />
<glyph unicode="&#x2010;" horiz-adv-x="958" d="M133 406v167h692v-167h-692z" />
<glyph unicode="&#x2011;" horiz-adv-x="958" d="M133 406v167h692v-167h-692z" />
<glyph unicode="&#x2012;" horiz-adv-x="958" d="M133 406v167h692v-167h-692z" />
<glyph unicode="&#x2013;" horiz-adv-x="1114" d="M133 406v167h848v-167h-848z" />
<glyph unicode="&#x2014;" horiz-adv-x="1581" d="M133 406v167h1315v-167h-1315z" />
<glyph unicode="&#x2018;" horiz-adv-x="516" d="M135 942v311l211 252l74 -51l-92 -231h51v-281h-244z" />
<glyph unicode="&#x2019;" horiz-adv-x="477" d="M106 993l93 232h-52v280h244v-311l-211 -252z" />
<glyph unicode="&#x201a;" horiz-adv-x="534" d="M104 -242l93 232h-52v280h244v-311l-211 -252z" />
<glyph unicode="&#x201c;" horiz-adv-x="841" d="M135 942v311l211 252l74 -51l-92 -231h51v-281h-244zM461 942v311l211 252l73 -51l-92 -231h52v-281h-244z" />
<glyph unicode="&#x201d;" horiz-adv-x="802" d="M106 993l93 232h-52v280h244v-311l-211 -252zM432 993l92 232h-51v280h244v-311l-211 -252z" />
<glyph unicode="&#x201e;" horiz-adv-x="860" d="M104 -242l93 232h-52v280h244v-311l-211 -252zM430 -242l92 232h-51v280h244v-311l-211 -252z" />
<glyph unicode="&#x2022;" horiz-adv-x="659" d="M182 498q0 29 11.5 55.5t32 48t46 33.5t56.5 12q29 0 55.5 -12t48 -33.5t33.5 -48.5t12 -55q0 -31 -12 -56.5t-33.5 -46t-48.5 -32t-55 -11.5q-59 0 -102.5 43.5t-43.5 102.5z" />
<glyph unicode="&#x2026;" horiz-adv-x="1298" d="M115 121q0 29 11 55.5t31.5 48t46 33.5t56.5 12q29 0 55.5 -12t48 -33.5t34 -48t12.5 -55.5q0 -31 -12.5 -56.5t-34 -46t-48 -32t-55.5 -11.5q-59 0 -102 43.5t-43 102.5zM504 121q0 29 11 55.5t31.5 48t46 33.5t56.5 12q29 0 55.5 -12t48 -33.5t34 -48t12.5 -55.5 q0 -31 -12.5 -56.5t-34 -46t-48 -32t-55.5 -11.5q-59 0 -102 43.5t-43 102.5zM891 121q0 29 11 55.5t31.5 48t46.5 33.5t56 12q29 0 55.5 -12t48 -33.5t34 -48t12.5 -55.5q0 -31 -12.5 -56.5t-34 -46t-48 -32t-55.5 -11.5q-59 0 -102 43.5t-43 102.5z" />
<glyph unicode="&#x202f;" horiz-adv-x="346" />
<glyph unicode="&#x2039;" horiz-adv-x="690" d="M88 489v11l274 360h230l-297 -362v-11l297 -362h-232z" />
<glyph unicode="&#x203a;" horiz-adv-x="690" d="M98 125l297 362v11l-297 362h230l274 -360v-11l-272 -364h-232z" />
<glyph unicode="&#x205f;" horiz-adv-x="434" />
<glyph unicode="&#x20ac;" horiz-adv-x="1261" d="M86 461v168h156v33v37q0 19 2 38h-158v168h184q25 100 71 184.5t113.5 144.5t155.5 94t197 34q92 0 188.5 -23.5t161.5 -64.5l-65 -227q-51 49 -125 81.5t-170 32.5q-123 0 -189.5 -68.5t-95.5 -187.5h432v-168h-452v-108h452v-168h-434q59 -285 274 -285q104 0 193.5 37 t142.5 94l62 -207q-72 -49 -171.5 -87t-226.5 -38q-113 0 -200.5 37t-153 102.5t-107.5 153.5t-63 193h-174z" />
<glyph unicode="&#x2122;" horiz-adv-x="1458" d="M133 1206v131h442v-131h-151v-450h-139v450h-152zM643 756v581h184l146 -411l143 411h182v-581h-139v336l-123 -336h-133l-121 338v-338h-139z" />
<glyph unicode="&#xe000;" horiz-adv-x="940" d="M0 940h940v-940h-940v940z" />
<glyph unicode="&#xfb01;" horiz-adv-x="1075" d="M70 805v117l116 18q0 117 7.5 199t19.5 138t27.5 91t31.5 57q41 53 107.5 77t146.5 24q25 0 61 -3t79 -14.5t92 -32t98 -53.5l-92 -166q-55 35 -114.5 71t-139.5 36q-27 0 -45.5 -12.5t-30.5 -45t-17 -88t-5 -141.5v-135h180v-137h-180v-805h-226v805h-116zM711 0v942 h225v-942h-225z" />
<glyph unicode="&#xfb02;" horiz-adv-x="1097" d="M70 805v117l116 18q0 117 7.5 199t19.5 138t27.5 91t31.5 57q41 53 107.5 77t146.5 24q47 0 139.5 -12.5t190.5 -47.5l88 50v-1516h-225v1319q-47 16 -97.5 30.5t-111.5 14.5q-27 0 -45.5 -12.5t-30.5 -45t-17 -88t-5 -141.5v-135h180v-137h-180v-805h-226v805h-116z" />
<glyph unicode="&#xfb03;" horiz-adv-x="1777" d="M1379 1245q0 29 11 55.5t31.5 48t46 34t56.5 12.5q29 0 55.5 -12.5t48 -34t33.5 -48t12 -55.5q0 -31 -12 -56.5t-33.5 -46t-48 -31.5t-55.5 -11q-59 0 -102 43t-43 102zM1411 0v942h226v-942h-226zM705 805v117l116 18q0 117 7.5 199t19.5 138t27.5 91t31.5 57 q41 53 107.5 77t146.5 24q10 0 33 -1t50.5 -5t57 -13.5t54.5 -23.5l-51 -174q-20 12 -67.5 33.5t-92.5 21.5q-27 0 -45.5 -12.5t-30.5 -45t-17 -88t-5 -141.5v-135h180v-137h-180v-805h-226v805h-116zM70 805v117l116 18q0 117 7.5 199t19.5 138t27.5 91t31.5 57 q41 53 107.5 77t146.5 24q10 0 33 -1t50.5 -5t57 -13.5t54.5 -23.5l-51 -174q-20 12 -67.5 33.5t-92.5 21.5q-27 0 -45.5 -12.5t-30.5 -45t-17 -88t-5 -141.5v-135h180v-137h-180v-805h-226v805h-116z" />
<glyph unicode="&#xfb04;" horiz-adv-x="1802" d="M1424 0v1516h225v-1516h-225zM705 805v117l116 18q0 117 7.5 199t19.5 138t27.5 91t31.5 57q41 53 107.5 77t146.5 24q10 0 33 -1t50.5 -5t57 -13.5t54.5 -23.5l-51 -174q-20 12 -67.5 33.5t-92.5 21.5q-27 0 -45.5 -12.5t-30.5 -45t-17 -88t-5 -141.5v-135h180v-137 h-180v-805h-226v805h-116zM70 805v117l116 18q0 117 7.5 199t19.5 138t27.5 91t31.5 57q41 53 107.5 77t146.5 24q10 0 33 -1t50.5 -5t57 -13.5t54.5 -23.5l-51 -174q-20 12 -67.5 33.5t-92.5 21.5q-27 0 -45.5 -12.5t-30.5 -45t-17 -88t-5 -141.5v-135h180v-137h-180v-805 h-226v805h-116z" />
</font>
</defs>
</svg>
