<?xml version="1.0" standalone="no"?>
<!DOCTYPE svg PUBLIC "-//W3C//DTD SVG 1.1//EN" "http://www.w3.org/Graphics/SVG/1.1/DTD/svg11.dtd" >
<svg xmlns="http://www.w3.org/2000/svg">
<metadata>
This is a custom SVG webfont generated by Font Squirrel.
Copyright   : Copyright c 2010 Daniel Rhatigansparkyultrasparkyorg with Reserved Font Name Copse
Designer    : Daniel Rhatigan
Foundry     : Daniel Rhatigan
</metadata>
<defs>
<font id="CopseRegular" horiz-adv-x="1200" >
<font-face units-per-em="2048" ascent="1638" descent="-410" />
<missing-glyph horiz-adv-x="440" />
<glyph unicode=" "  horiz-adv-x="440" />
<glyph unicode="&#x09;" horiz-adv-x="440" />
<glyph unicode="&#xa0;" horiz-adv-x="440" />
<glyph unicode="!" horiz-adv-x="596" d="M163 120q0 29 10 54q9 26 27 44q38 40 96 41q58 -1 100 -41q42 -39 42 -84t-11 -70.5t-31 -43.5q-42 -39 -100 -40q-90 0 -123 84q-10 26 -10 56zM165 1494q0 31 134 31q133 0 133 -33l-50 -1060q0 -27 -55 -38q-15 -3 -28 -3q-86 0 -86 44z" />
<glyph unicode="&#x22;" horiz-adv-x="760" d="M67 1534q0 49 124 49q62 0 85.5 -16.5t23.5 -28.5l-35 -398q-3 -30 -69 -30q-42 0 -59 11t-18 19zM459 1538q1 32 77 42q18 2 33 3h10q11 0 25 -1q20 -2 40 -6q48 -11 48 -42l-52 -394q-4 -30 -77 -30q-66 0 -69 30z" />
<glyph unicode="#" horiz-adv-x="1190" d="M60 519q0 11 2 25q3 12 8 24q12 28 31 28h184l46 310h-146q-29 0 -39 52q-2 13 -2 24q0 46 15 62t26 16h168l66 445q3 18 31 19t39 1q10 0 22.5 -0.5t23.5 -2.5q26 -4 26 -17l-64 -445h287l66 445q3 18 31 19t39 1q10 0 22.5 -0.5t23.5 -2.5q26 -4 26 -17l-64 -445h162 q26 0 36 -51q2 -13 3 -24v-4q0 -9 -2 -21q-3 -14 -7 -26q-10 -28 -30 -28h-184l-45 -310h148q27 0 37 -50q2 -13 2 -24q0 -12 -2 -26q-4 -14 -8 -26q-10 -28 -29 -28h-170l-63 -442q-2 -17 -33.5 -18.5t-41.5 -1.5h-22q-11 0 -23 2q-26 3 -27 18l65 442h-286l-63 -442 q-2 -17 -33.5 -18.5t-41.5 -1.5h-22q-12 0 -24 2q-26 3 -26 18l65 442h-162q-29 0 -39 52q-2 13 -2 25zM430 596h286l46 310h-287z" />
<glyph unicode="$" horiz-adv-x="1130" d="M65 300q0 66 45 111t109 45q65 0 109 -45q44 -46 44 -111q0 -8 -2 -18l-6 -21q-3 -11 -6.5 -21t-5.5 -17q58 -43 138 -48v506q-185 80 -253.5 141.5t-102.5 126.5t-34 152q0 86 30.5 150.5t83.5 110.5q103 90 276 113v133q0 28 71 28t71 -28v-127q153 -9 272 -79 q140 -81 140 -205q0 -64 -44 -110q-43 -44 -109 -44q-65 0 -109 44q-45 45 -45 96q0 50 29 108q-55 32 -134 36v-477q204 -94 276.5 -151t110.5 -119t38 -148q0 -87 -32 -158q-33 -70 -89 -122q-112 -103 -304 -126v-168q0 -28 -71 -28t-71 28v163q-163 11 -284 80 q-141 80 -141 199zM311 1135q0 -120 179 -216v399q-179 -32 -179 -183zM632 184q153 29 198 137q16 37 16 79t-16 72q-17 30 -46 56q-47 42 -152 91v-435z" />
<glyph unicode="%" horiz-adv-x="1281" d="M67 0l992 1505q20 32 96 32q62 0 62 -32l-984 -1505q-22 -30 -103 -30q-63 0 -63 30zM81 1182q0 140 85 231q86 92 220 92q129 0 202 -91q66 -82 66 -208q0 -140 -85 -231q-86 -92 -221 -92q-68 0 -118 25q-48 25 -82 66q-66 81 -67 208zM238 1205q0 -147 69 -196 q24 -17 58 -17q130 0 130 189q0 148 -71 196q-25 17 -59 17q-127 0 -127 -189zM627 279q0 140 85 231q86 92 220 92q129 0 202 -91q66 -82 66 -208q0 -140 -85 -231q-86 -92 -221 -92q-68 0 -118 25q-48 25 -82 66q-66 81 -67 208zM785 305q0 -147 69 -196q24 -17 58 -17 q130 0 130 189q0 148 -71 196q-25 17 -59 17q-127 0 -127 -189z" />
<glyph unicode="&#x26;" horiz-adv-x="1354" d="M74 376q0 125 60 228q52 89 196 233l-44 72q-89 151 -89 291q1 136 101 227q108 98 292 98q195 -1 293 -111q75 -85 75 -209q0 -120 -63 -229q-59 -102 -215 -262l255 -338q117 169 117 274q0 16 -13 16h-124q-29 0 -39 54q-2 14 -2 28q0 59 26 59h398q25 0 25 -70 q0 -71 -35 -71h-61q-22 -185 -202 -403l21 -33q31 -49 76.5 -69t115.5 -20q24 0 24 -65q0 -47 -14.5 -61.5t-24.5 -14.5h-170q-76 0 -168 103q-171 -123 -379 -123q-190 0 -310 109q-122 111 -122 287zM307 423q1 -137 63 -215q59 -74 142 -74q161 0 281 91l-369 487 q-117 -117 -117 -289zM399 1228q0 -55 15.5 -102t41.5 -95q42 -77 132 -191q165 146 165 347q-1 125 -93 169q-30 14 -73 15h-4q-41 0 -75 -12q-36 -12 -60 -33q-49 -43 -49 -98z" />
<glyph unicode="'" horiz-adv-x="379" d="M73 1534q0 49 116 49q71 0 94 -15t23 -30l-43 -398q-3 -30 -69 -30q-74 0 -77 30z" />
<glyph unicode="(" horiz-adv-x="636" d="M92 727q0 287 102 549q90 230 245 399q10 9 43 9q32 0 55 -21.5t23 -48.5q-208 -356 -244 -660q-12 -106 -12 -224q-1 -5 -1 -9q0 -114 13 -218q12 -107 42 -215q59 -210 202 -454q0 -45 -47 -67q-13 -6 -32 -6q-20 0 -42 12q-239 257 -319 663q-28 140 -28 291z" />
<glyph unicode=")" horiz-adv-x="637" d="M76 -166q208 353 244 669q12 108 13 227v9q0 113 -12 216q-13 106 -43 211q-58 204 -202 448q0 27 23 48.5t47 21.5q41 0 51 -9q241 -261 319 -657q28 -138 28 -291q0 -433 -213 -777q-63 -102 -134 -177q-22 -12 -41 -12q-20 0 -33 6q-13 5 -23 15q-24 21 -24 52z" />
<glyph unicode="*" horiz-adv-x="676" d="M66 1349q0 20 4 40t12 40q18 50 42 50l5 -1l147 -67l-17 158q0 21 52 29q13 2 25 2q11 0 26 -2q16 0 28 -4q29 -8 29 -24v-1l-20 -160l145 67q2 1 10 1t19 -14.5t19 -34.5q18 -41 18 -69q0 -29 -14 -35l-161 -33l114 -116q3 -5 3 -14q0 -10 -13 -26.5t-31 -30.5 q-44 -34 -62 -34q-19 0 -23 7l-89 145l-77 -142q-6 -7 -17 -7q-12 0 -31.5 8.5t-38.5 22.5q-46 33 -46 59q0 5 3 10l109 122l-156 30q-14 4 -14 24z" />
<glyph unicode="+" horiz-adv-x="1042" d="M59 655q0 10 3 22q2 13 7 25q12 27 30 27h349v369q0 21 72 21t72 -21v-369h350q26 0 36 -50q2 -13 3 -24q0 -45 -14.5 -62.5t-24.5 -17.5h-350v-413q0 -21 -72 -21t-72 21v413h-348q-28 0 -38 52q-2 13 -2 25q-1 1 -1 3z" />
<glyph unicode="," horiz-adv-x="505" d="M74 -211q106 119 106 195q-74 39 -74 129q0 59 42 99t87 40t72 -11t47 -29q44 -40 45 -99q0 -176 -265 -383q-29 0 -44.5 16t-15.5 43z" />
<glyph unicode="-" horiz-adv-x="750" d="M112 600q0 12 2.5 27t7.5 29q12 33 31 33h447q26 0 36 -59q2 -14 2 -26q0 -52 -14.5 -71.5t-24.5 -19.5h-447q-28 0 -38 61q-2 14 -2 26z" />
<glyph unicode="." horiz-adv-x="487" d="M106 115q0 95 84 129q26 10 55 10t54 -10q25 -12 43 -30q39 -40 39 -99q0 -92 -82 -125q-25 -10 -54 -10q-30 0 -55.5 10t-43.5 28q-40 38 -40 97z" />
<glyph unicode="/" horiz-adv-x="913" d="M34 -141l673 1747q49 32 75 32q25 0 38 -1q12 -1 24 -5q28 -8 28 -26l-666 -1747q-40 -29 -97 -29q-46 0 -60.5 10t-14.5 19z" />
<glyph unicode="0" d="M94 679q0 246 35.5 401.5t104 254.5t167.5 144.5t227 45.5t218 -56q91 -55 149 -155q111 -190 111 -536q0 -367 -142 -581q-144 -217 -390 -217q-240 0 -370 246q-110 206 -110 453zM327 753q0 -427 153 -562q52 -46 122 -46q69 0 120 46q50 46 84 127q66 161 67 435 q0 439 -140 561q-52 46 -131 46q-218 0 -262 -364q-13 -105 -13 -226v-17z" />
<glyph unicode="1" d="M242 1204q0 26 16 36l458 285q91 0 91 -20v-1364h245q25 0 25 -70q0 -71 -36 -71h-723q-23 0 -23 55v3q0 47 27 75q8 8 16 8h149q91 0 105 25q4 8 4 18v967q0 61 -21 61q-7 0 -27 -8l-46 -18q-26 -10 -55 -23t-56 -23q-66 -26 -80 -26t-26 9q-11 9 -21 23q-22 31 -22 58z " />
<glyph unicode="2" d="M143 1174q0 76 40.5 143t104.5 113q131 94 307 95q199 0 321 -89q123 -90 123 -241v-2q0 -231 -186 -410q-53 -52 -113 -101l-120 -98q-223 -182 -282 -373h553l40 137q27 22 55 22q55 0 79 -51l-46 -319h-846v75q0 279 200 499q57 62 117 118l116 110q125 118 173 226 q27 61 27 150t-65 141t-180 52q-125 0 -185 -71q32 -16 53 -54t21 -77t-12 -67t-32 -49q-42 -44 -109 -44q-65 0 -109 44q-45 45 -45 121z" />
<glyph unicode="3" d="M145 340v2q0 65 45 110q44 44 109 44q60 0 105 -42q46 -43 46 -113t-72 -136q60 -71 185 -71q117 0 189 76q74 77 74 206q0 116 -71 204q-77 96 -210 111v93q173 49 237 189q26 55 26 117t-17 103t-49 72q-67 66 -179 66q-125 0 -185 -71q32 -16 53 -54t21 -77t-12 -67 t-32 -49q-43 -44 -109 -44q-65 0 -109 44q-45 45 -45 121t40.5 143t104.5 113q131 94 307 95q194 0 310 -105q112 -102 112 -259v-2q0 -187 -157 -303q-44 -33 -91 -54q125 -63 180 -123q108 -120 108 -273v-2q0 -166 -131 -291q-139 -133 -346 -133q-164 0 -294 94 q-143 104 -143 266z" />
<glyph unicode="4" d="M96 485l459 1040q175 0 175 -132l-416 -823h382v348q0 102 211 102v-450h183q25 0 25 -62q0 -52 -17 -72t-28 -20h-163v-275h147q25 0 25 -70q0 -71 -36 -71h-625q-23 0 -23 55v3q0 47 27 75q8 8 16 8h149q91 0 105 25q4 8 4 18v232h-553q-41 24 -47 69z" />
<glyph unicode="5" d="M145 340q0 66 45 111t109 45q65 0 109 -45q44 -46 44 -112t-74 -134q60 -71 197 -71q111 0 185 76q80 82 80 218q0 153 -97 244q-94 88 -254 88h-244v745h758q0 -110 -12 -143q-25 -68 -98 -68h-494v-380h154q248 0 391 -146q129 -132 129 -329q0 -209 -139 -335 q-137 -123 -355 -124q-162 0 -291 94q-143 104 -143 266z" />
<glyph unicode="6" d="M109 710q0 404 182 624q157 191 367 191h2q299 -1 384 -205q28 -68 28 -128t-12 -88.5t-33 -49.5q-45 -45 -109 -45t-108 45q-44 46 -45 111q0 97 74 135q-60 71 -177 71h-2q-126 0 -217 -145q-101 -160 -101 -417q69 72 204 100q49 10 130 10q80 0 165 -32 q85 -31 146 -93q128 -129 128 -351q0 -206 -156 -339q-146 -124 -331 -124q-519 0 -519 730zM342 577q0 -168 70 -299q78 -144 202 -144q116 0 191 88q77 91 77 237q0 123 -70 211q-76 94 -188 95q-58 0 -104 -17.5t-82 -45.5q-68 -53 -96 -125z" />
<glyph unicode="7" d="M91 1215l38 290h972q35 0 35 -65l-148 -258q-138 -247 -199.5 -403.5t-93.5 -270.5q-64 -226 -87 -508q0 -20 -116 -20q-117 0 -117 20q53 556 331 1014q88 144 193 296h-637l-37 -124q-6 -19 -44 -19q-84 0 -90 48z" />
<glyph unicode="8" d="M93 389v3q0 234 264 444q-87 72 -122 128q-71 112 -71 236q0 132 124 227q127 98 316 98q205 0 333 -101q115 -91 115 -219q0 -189 -140 -347q-38 -44 -76 -80q139 -75 187.5 -132t69 -113t20.5 -141q0 -86 -40.5 -164t-108.5 -133q-141 -115 -339 -115q-259 0 -399 116 q-133 109 -133 293zM326 413q0 -123 76 -200q78 -79 208 -79q121 0 201 86q69 74 69 145t-28.5 121t-80.5 96q-78 68 -284 179q-161 -172 -161 -348zM366 1201q0 -62 27 -107t73 -86q71 -64 236 -158q145 187 145 307v3q0 94 -73 154q-68 57 -170 57q-111 -1 -177 -57 q-61 -52 -61 -113z" />
<glyph unicode="9" d="M92 1062q0 206 156 339q146 124 331 124q519 0 519 -730q0 -621 -318 -769q-100 -46 -201 -46t-176 23t-135 69q-133 101 -133 266v2q0 66 45 111t109 45q65 0 109 -45q44 -46 44 -111q0 -97 -74 -135q60 -71 198 -71q129 0 209 134q90 151 90 428q-64 -72 -204 -100 q-49 -10 -129 -10q-81 0 -166 32t-146 94q-128 129 -128 350zM325 1043q0 -122 69 -209q74 -94 189 -94q58 0 104 18q45 16 81 44q70 54 97 126q-1 197 -71 318q-73 125 -201 125q-116 -1 -191 -89q-77 -91 -77 -236v-3z" />
<glyph unicode=":" horiz-adv-x="559" d="M142 162q0 60 39 100q38 40 82 40h1q45 -1 70 -12q26 -10 44 -28q39 -39 39 -97v-6q0 -56 -39 -95q-38 -38 -83 -38q-2 -1 -4 -1q-42 0 -67 10q-25 11 -43 29q-39 40 -39 98zM142 772q0 58 39 98q37 38 83 39h4q42 0 66 -10q26 -11 44 -29q39 -39 39 -95v-6 q0 -56 -39 -95q-38 -38 -84 -39q-76 0 -114 39.5t-38 97.5z" />
<glyph unicode=";" horiz-adv-x="573" d="M110 -211q106 119 106 195q-74 39 -74 129q0 59 42 99t87 40t72 -11t47 -29q44 -40 45 -99q0 -176 -265 -383q-29 0 -44.5 16t-15.5 43zM147 772q0 94 82 127q25 10 55 10q29 0 54 -10q26 -11 44 -29q39 -39 39 -95v-6q0 -56 -39 -95q-38 -38 -84 -39q-74 0 -112.5 38.5 t-38.5 98.5z" />
<glyph unicode="&#x3c;" horiz-adv-x="1075" d="M56 641q0 60 53 90l791 443q46 -15 62 -73q4 -17 5 -33l-636 -426l636 -446q0 -76 -62 -100l-799 462q-50 30 -50 83z" />
<glyph unicode="=" horiz-adv-x="1165" d="M118 838q0 46 15 62t26 16h846q27 0 37 -51q2 -13 2 -24t-2 -25q-4 -14 -8 -26q-10 -28 -29 -28h-846q-29 0 -39 52q-2 13 -2 24zM122 466q0 11 2.5 24.5t7.5 25.5q12 27 30 27h843q27 0 37 -50q2 -13 2 -24q0 -12 -2 -26q-4 -14 -8 -26q-10 -28 -29 -28h-842 q-29 0 -39 52q-2 13 -2 25z" />
<glyph unicode="&#x3e;" horiz-adv-x="1074" d="M108 196l636 446l-636 426q0 57 38 90q12 11 29 16l791 -443q53 -30 53 -90q0 -53 -50 -83l-799 -462q-62 24 -62 100z" />
<glyph unicode="?" horiz-adv-x="947" d="M56 1267q0 53 22 89.5t58 64t80.5 47.5t90.5 32q90 24 176 25h2q84 0 161 -29q78 -29 130 -78q106 -99 107 -251q0 -149 -117 -271q-52 -54 -116 -103l-129 -101v-247q0 -45 -63 -59q-18 -4 -38 -4q-94 0 -94 63v270q36 33 76 63l77 60q90 73 124 122q63 93 63 187 q0 101 -63 163q-62 60 -166 61q-81 0 -124 -11q23 -41 23 -79t-11 -63.5t-30 -43.5q-41 -40 -85 -40t-70 10q-25 12 -44 30q-40 39 -40 93zM281 119q0 30 10.5 55.5t29.5 43.5q42 40 86 41h3q41 0 66 -11q25 -12 44 -30q41 -40 41 -84q0 -45 -11 -70.5t-30 -43.5 q-41 -40 -85 -40t-69.5 10.5t-44.5 29t-29.5 44t-10.5 55.5z" />
<glyph unicode="@" horiz-adv-x="1843" d="M68 459q0 398 249 650q156 158 381 217q111 29 266 29t308.5 -63t261.5 -174q226 -231 226 -589q0 -225 -129 -381q-131 -159 -329 -159h-3q-103 0 -143 52q-14 18 -24 44q-83 -67 -211 -95q-46 -10 -95 -10q-366 0 -366 532q0 228 138 373q132 139 331 139 q100 0 233 -37l40 51q6 2 12 2h15q59 0 104 -36q13 -10 19 -23l-55 -215v-577q0 -35 9 -44q14 -15 53 -15t80.5 25t76.5 75q82 118 82 279q0 160 -45 282.5t-131 213.5q-184 196 -492 196q-310 -1 -499 -195q-198 -203 -198 -558q1 -286 183 -465q186 -183 471 -183t461 116 q46 -20 76 -84q8 -18 11 -34q-217 -148 -523 -148q-390 0 -614 210q-230 216 -230 599zM665 512q0 -105 16 -176.5t43 -116.5q51 -85 143 -85q115 0 235 100v571q-83 65 -188 65q-158 0 -224 -184q-25 -70 -25 -174z" />
<glyph unicode="A" horiz-adv-x="1424" d="M-12 57q0 52 24 76q8 8 36 8q74 0 97 57l509 1307q8 20 39 20q67 0 75 -20l533 -1364h117q26 0 26 -60q0 -50 -14.5 -65.5t-24.5 -15.5h-485q-25 0 -25 55q0 52 15 69t26 17q124 0 124 24q0 9 -8 25l-119 309h-507l-139 -358h172q26 0 26 -58q0 -52 -13.5 -67.5 t-22.5 -15.5h-436q-25 0 -25 57zM485 653h389l-193 504z" />
<glyph unicode="B" horiz-adv-x="1329" d="M74 1446q0 59 26 59h514q543 0 543 -368q0 -114 -82 -205q-79 -87 -194 -118q169 -24 269 -124q99 -100 99 -252q0 -318 -316 -415q-108 -33 -255 -33l-251 10h-302q-25 0 -25 57q0 49 28 77q8 8 31 8h4q4 -1 8 -1q23 0 47 3q29 2 45 7q28 9 28 33v1164q0 16 -13 16h-163 q-29 0 -39 54q-2 14 -2 28zM502 298q0 -79 39.5 -116.5t133.5 -37.5q93 0 157 14t105 48q79 65 79 231q0 143 -132 225q-113 71 -274 71h-108v-435zM502 887h153q186 0 246 118q23 45 23 118t-28 119t-82 70q-87 39 -312 39v-464z" />
<glyph unicode="C" horiz-adv-x="1274" d="M102 734q0 386 194 596q180 195 478 195h3q157 0 288 -76q145 -84 145 -208q0 -64 -44 -110q-43 -44 -109 -44q-65 0 -109 44q-45 45 -45 106q0 60 22 98q-59 36 -155 36t-176 -39q-78 -39 -136 -111q-122 -153 -123 -398q0 -507 249 -637q79 -42 161 -42q1 0 2 1 q82 0 130.5 13t87.5 31.5t69 38.5q58 40 73 40q14 0 28 -11t26 -27q27 -35 27 -61q0 -27 -18.5 -43.5t-57 -42t-94.5 -48.5q-135 -55 -277 -55t-255 44q-112 45 -198 138q-186 202 -186 572z" />
<glyph unicode="D" horiz-adv-x="1517" d="M73 1442q0 63 26 63h582q395 0 569 -190q162 -177 163 -557v-3q0 -380 -229 -579q-202 -175 -503 -176h-553q-27 0 -27 57q0 46 26 76q7 8 34 8q26 0 55 3q30 2 46 7q28 9 28 33v1166q0 14 -12 14h-164q-28 0 -38 52q-2 14 -3 26zM501 154h147q214 0 364 139 q168 157 168 430q0 468 -292 589q-94 39 -215 39h-172v-1197z" />
<glyph unicode="E" horiz-adv-x="1288" d="M73 1442q0 63 26 63h1100v-291q0 -34 -70 -34q-71 0 -71 22q0 84 -22 108q-39 41 -142 41h-393v-503h254q46 0 54 22q13 32 13 129q0 23 60 23q52 0 67 -14t15 -23v-428q0 -41 -72 -41t-72 27v151h-319v-540h530l76 149q10 19 38 19q27 0 42 -3t27 -8q27 -11 27 -30 q0 -5 -1 -7l-92 -274h-1020q-27 0 -27 59q1 51 25 75q8 8 32 8h3q4 -1 9 -1q23 0 47 3q29 2 45 7q28 9 28 33v1166q0 14 -12 14h-164q-28 0 -38 52q-2 14 -3 26z" />
<glyph unicode="F" horiz-adv-x="1236" d="M73 1442q0 63 26 63h1100v-291q0 -34 -70 -34q-71 0 -71 22q0 84 -22 108q-39 41 -142 41h-393v-503h254q46 0 54 22q13 32 13 129q0 23 60 23q52 0 67 -14t15 -23v-428q0 -41 -72 -41t-72 27v151h-319v-553h215q26 0 26 -61q0 -48 -15 -64t-26 -16h-573q-27 0 -27 59 q1 51 25 75q8 8 32 8h3q4 -1 9 -1q23 0 47 3q29 2 45 7q28 9 28 33v1166q0 14 -12 14h-164q-28 0 -38 52q-2 14 -3 26z" />
<glyph unicode="G" horiz-adv-x="1363" d="M100 777q0 157 52 305q51 150 141 248q178 195 477 195h8q183 0 313 -75q142 -81 142 -209q-1 -64 -45 -110q-43 -44 -108 -44t-109 44q-45 45 -45 107q0 61 16 98q-77 35 -173 35q-97 0 -177 -39q-78 -39 -136 -111q-122 -153 -123 -398v-4q0 -504 247 -633 q79 -42 190 -42q2 0 3 1q113 0 214 41v289q0 16 -13 16h-163q-29 1 -39 55q-2 14 -2 27q0 59 26 59h483q25 0 25 -70q0 -71 -35 -71h-71v-344q-84 -72 -154 -103q-147 -64 -323 -64q-167 0 -310 94q-221 146 -289 446q-22 100 -22 257z" />
<glyph unicode="H" horiz-adv-x="1612" d="M73 1444q0 61 26 61h592q25 0 25 -70q0 -71 -35 -71h-180v-516h610v500q0 16 -12 16h-164q-29 0 -39 53q-2 14 -2 27q0 61 27 61h591q25 0 25 -70q0 -71 -35 -71h-180v-1223h168q27 0 27 -61q0 -49 -15.5 -64.5t-25.5 -15.5h-531q-24 0 -24 57q0 51 27 77q8 8 32 8h3 q4 -1 9 -1q23 0 47 3q28 2 44 7q28 9 28 33v510h-610v-553h168q26 0 26 -61q0 -48 -15 -64t-26 -16h-532q-23 0 -23 57v3q0 47 27 74q8 8 32 8h3q4 -1 9 -1q23 0 47 3q29 2 45 7q28 9 28 33v1164q0 16 -13 16h-163q-28 0 -38 53q-2 14 -3 27z" />
<glyph unicode="I" horiz-adv-x="791" d="M74 1446q0 59 26 59h592q25 0 25 -70q0 -71 -35 -71h-180v-1223h168q26 0 26 -61q0 -48 -15 -64t-26 -16h-532q-23 0 -23 57q0 49 28 77q8 8 31 8h4q4 -1 8 -1q23 0 47 3q29 2 45 7q28 9 28 33v1164q0 16 -13 16h-163q-29 0 -39 54q-2 14 -2 28z" />
<glyph unicode="J" horiz-adv-x="756" d="M-53 -303q0 95 83 129q25 10 54 10q75 0 117 -67q72 45 72 231v1348q0 16 -13 16h-163q-29 0 -39 54q-2 14 -2 28q0 59 26 59h592q25 0 25 -70q0 -71 -35 -71h-180v-1296q0 -187 -100 -339q-70 -104 -178 -147q-56 -22 -103 -22q-48 0 -73 10q-26 10 -44 28 q-39 39 -39 96v3z" />
<glyph unicode="K" horiz-adv-x="1487" d="M74 1446q0 59 26 59h540q25 0 25 -70q0 -71 -35 -71h-128v-1223h168q26 0 26 -61q0 -48 -15 -64t-26 -16h-532q-23 0 -23 57q0 49 28 77q8 8 31 8h4q4 -1 8 -1q23 0 47 3q29 2 45 7q28 9 28 33v1164q0 16 -13 16h-163q-29 0 -39 54q-2 14 -2 28zM569 796l525 568h-132 q-26 0 -26 58q0 52 13.5 67.5t22.5 15.5h437q25 0 25 -57q0 -52 -24 -76q-8 -8 -24 -8q-17 0 -34 -3.5t-29 -9.5q-20 -10 -38 -30l-457 -518l440 -573q35 -46 78.5 -67.5t113.5 -21.5q24 0 24 -65q0 -47 -14.5 -61.5t-24.5 -14.5h-170q-69 0 -139 62q-20 18 -36 40z" />
<glyph unicode="L" horiz-adv-x="1183" d="M73 1449q0 9 2 17q1 10 4 18q7 20 20 21h592q25 0 25 -70q0 -71 -35 -71h-180v-1210h469l77 149q10 19 38 19q27 0 42 -3t27 -8q28 -12 28 -30q0 -5 -1 -7l-93 -274h-966q-23 0 -23 59v3q0 45 27 72q8 8 32 8h3q4 -1 9 -1q23 0 47 3q29 2 45 7q28 9 28 33v1164 q0 16 -13 16h-163q-28 0 -38 54q-2 14 -2 26q-1 2 -1 5z" />
<glyph unicode="M" horiz-adv-x="1969" d="M74 1446q0 59 26 59h298q28 0 41 -29l549 -1156l481 1165q9 20 26 20h375q25 0 25 -70q0 -71 -35 -71h-180v-1223h168q26 0 26 -61q0 -48 -15 -64t-26 -16h-530q-25 0 -25 57q0 49 28 77q8 8 31 8h4q4 -1 8 -1q23 0 47 3q29 2 45 7q28 9 28 33v935l-449 -1119 q-12 -12 -40 -12q-54 0 -75 12l-460 1023v-882h167q26 0 26 -61q0 -48 -15 -64t-26 -16h-472q-25 0 -25 57q0 49 28 77q8 8 31 8h4q4 -1 8 -1q23 0 47 3q29 2 45 7q28 9 28 33v1164q0 16 -13 16h-163q-29 0 -39 54q-2 14 -2 28z" />
<glyph unicode="N" horiz-adv-x="1667" d="M74 1446q0 59 26 59h348l793 -1160v1003q0 16 -13 16h-163q-29 0 -39 54q-2 14 -2 28q0 59 26 59h534q25 0 25 -70q0 -71 -35 -71h-179v-1366q0 -18 -74 -18q-71 0 -82 18l-794 1129v-986h168q27 0 27 -61q0 -50 -15 -65t-27 -15h-473q-25 0 -25 57q0 49 28 77q8 8 31 8 h4q4 -1 8 -1q23 0 47 3q29 2 45 7q28 9 28 33v1164q0 16 -13 16h-163q-29 0 -39 54q-2 14 -2 28z" />
<glyph unicode="O" horiz-adv-x="1501" d="M102 731q0 386 192 597q179 197 480 197q303 -1 465 -215q159 -210 159 -594q0 -366 -200 -562q-176 -174 -464 -174q-132 0 -246 44q-114 45 -200 137q-186 200 -186 570zM332 823q0 -505 249 -636q80 -42 172 -42q91 0 164 30q73 31 129 99q122 149 122 455 q0 265 -122 447q-124 184 -305 184q-175 0 -289 -145q-120 -151 -120 -392z" />
<glyph unicode="P" horiz-adv-x="1221" d="M73 1446q0 59 27 59h556q231 -1 367 -111q137 -111 137 -304q0 -461 -659 -461v-488h223q26 0 26 -61q0 -48 -15 -64t-26 -16h-586q-24 0 -24 56v3q0 48 27 75q8 8 32 8h3q4 -1 9 -1q23 0 47 3q29 2 45 7q28 9 28 33v1165q0 15 -13 15h-163q-28 0 -38 54q-2 14 -3 28z M501 783q210 1 304 51q122 65 122 230v3q0 166 -99 227q-92 57 -327 57v-568z" />
<glyph unicode="Q" horiz-adv-x="1502" d="M103 727v4q0 386 192 597q179 197 480 197q303 -1 465 -215q159 -210 159 -594q0 -410 -242 -600q-74 -58 -161 -91q165 -310 392 -310q108 0 248 84q7 4 18 4q10 0 24 -9q16 -10 28 -25q28 -34 28 -65t-22 -46.5t-55 -31.5q-33 -18 -78 -32q-101 -33 -212 -33h-7 q-363 0 -620 419h-8q-276 0 -444 182q-185 200 -185 565zM333 823q0 -505 249 -636q80 -42 172 -42q91 0 164 30q73 31 129 99q122 149 122 455q-1 265 -123 447q-124 184 -304 184q-176 0 -290 -145q-119 -150 -119 -388v-4z" />
<glyph unicode="R" horiz-adv-x="1355" d="M73 1446q0 59 27 59h556q231 -1 367 -111q137 -111 137 -304q0 -302 -291 -408l280 -452q30 -49 76 -69t116 -20q24 0 24 -65q0 -47 -14.5 -61.5t-24.5 -14.5h-170q-76 0 -141 60q-20 18 -34 42l-328 534q-63 -7 -152 -7v-488h223q26 0 26 -61q0 -48 -15 -64t-26 -16 h-586q-24 0 -24 56v3q0 48 27 75q8 8 32 8h3q4 -1 9 -1q23 0 47 3q29 2 45 7q28 9 28 33v1165q0 15 -13 15h-163q-28 0 -38 54q-2 14 -3 28zM501 783q210 1 304 51q122 65 122 230v3q0 166 -99 227q-92 57 -327 57v-568z" />
<glyph unicode="S" horiz-adv-x="1177" d="M83 260q0 66 45 111t109 45q65 0 109 -45q44 -46 44 -99t-28 -103q65 -35 161 -35t154 18q57 16 99 48q88 67 89 177v1q0 126 -205 244q-58 34 -126 67l-143 73q-273 144 -273 385q0 185 150 287q134 91 341 91h9q154 0 286 -69q158 -81 158 -215q0 -64 -44 -110 q-43 -44 -109 -44q-65 0 -109 44q-45 45 -45 110q0 53 29 94q-59 36 -141 36q-83 0 -137 -15q-54 -14 -94 -42q-82 -57 -83 -163v-2q0 -78 87 -141q42 -32 104 -64l135 -70q221 -110 310 -203q111 -115 111 -276q0 -184 -144 -299.5t-365 -115.5q-170 0 -315 71 q-169 83 -169 209z" />
<glyph unicode="T" horiz-adv-x="1275" d="M18 1228v4l38 273h1161l38 -273v-4q0 -36 -55 -48q-12 -3 -25 -3h-6q-39 0 -48 26l-44 148h-335v-1210h168q27 0 27 -67q0 -43 -15.5 -58.5t-25.5 -15.5h-531q-24 0 -24 57q0 51 27 77q8 8 32 8h3q4 -1 9 -1q23 0 47 3q29 2 45 7q27 8 27 33v1167h-335l-44 -148 q-9 -26 -50 -26q-50 1 -76 31q-8 10 -8 20z" />
<glyph unicode="U" horiz-adv-x="1545" d="M41 1444q0 61 26 61h572q25 0 25 -70q0 -71 -35 -71h-160v-786q0 -341 194 -411q61 -22 141 -22t142 25.5t102 78.5q78 103 78 326v773q0 16 -13 16h-144q-29 0 -39 54q-2 14 -2 28q0 59 26 59h516q26 0 26 -64q0 -48 -13.5 -62.5t-22.5 -14.5h-169v-809 q0 -575 -519 -575q-280 0 -402 152q-112 139 -112 437v779q0 16 -13 16h-163q-28 0 -38 54q-2 14 -3 26z" />
<glyph unicode="V" horiz-adv-x="1426" d="M-19 1424q0 49 14 65t25 16h485q25 0 25 -55q0 -53 -15.5 -69.5t-25.5 -16.5q-124 0 -124 -24q0 -9 8 -25l371 -967l375 1016h-153q-26 0 -26 58q0 52 13.5 67.5t22.5 15.5h436q25 0 25 -57q0 -52 -24 -76q-9 -8 -37 -8q-76 0 -96 -57l-503 -1307q-8 -20 -61 -20 q-49 0 -59 20l-540 1364h-110q-26 0 -26 60z" />
<glyph unicode="W" horiz-adv-x="2059" d="M-37 1424q0 49 14 65t25 16h485q25 0 25 -55q0 -53 -15.5 -69.5t-25.5 -16.5q-124 0 -124 -24q0 -9 8 -25l360 -939l229 691l-116 297h-117q-26 0 -26 60q0 49 14 65t25 16h485q25 0 25 -55q0 -53 -15.5 -69.5t-25.5 -16.5q-124 0 -124 -24q0 -9 8 -25l359 -939l297 988 h-156q-26 0 -26 58q0 52 13.5 67.5t22.5 15.5h436q25 0 25 -57q0 -52 -24 -76q-8 -8 -36 -8q-74 0 -97 -57l-410 -1307q-6 -20 -41 -20q-71 0 -79 20l-331 848l-277 -848q-6 -20 -55 -20t-59 20l-541 1364h-109q-26 0 -26 60z" />
<glyph unicode="X" horiz-adv-x="1383" d="M17 61q0 47 26 73q7 7 28 7t45.5 4.5t41.5 12.5q28 12 47 38l349 569l-375 599h-122q-27 0 -27 58q0 50 14.5 66.5t24.5 16.5h511q23 0 23 -57q0 -53 -15.5 -68.5t-26.5 -15.5q-111 0 -111 -22q0 -7 9 -25l257 -411l318 458h-165q-26 0 -26 59q0 51 13.5 66.5t22.5 15.5 h441q24 0 24 -58q0 -51 -15 -67t-25 -16q-72 0 -110 -43l-387 -560l349 -557q34 -56 134 -62q19 -1 37 -1h17q26 0 26 -61q0 -48 -15 -64t-26 -16h-528q-27 0 -27 61q0 47 28 73q8 7 14 7h129l-299 477l-275 -447q-7 -10 -7 -17q0 -13 18 -13h105q26 0 26 -60q0 -49 -15 -65 t-26 -16h-429q-26 0 -26 61z" />
<glyph unicode="Y" horiz-adv-x="1284" d="M-31 1424q0 49 14 65t25 16h493q25 0 25 -57q0 -52 -15 -68t-26 -16q-106 0 -106 -35q0 -10 6 -22l285 -572l316 629h-156q-26 0 -26 58q0 52 13.5 67.5t22.5 15.5h436q25 0 25 -57q0 -52 -24 -76q-9 -8 -37 -8q-66 0 -88 -43l-397 -762v-418h245q26 0 26 -61 q0 -48 -15 -64t-26 -16h-717q-25 0 -25 57v3q0 47 27 74q7 7 14 7h151q91 0 105 25q4 8 4 18v375l-437 805h-112q-26 0 -26 60z" />
<glyph unicode="Z" horiz-adv-x="1280" d="M80 0v75l822 1276h-644l-44 -148q-9 -26 -50 -26q-50 1 -76 31q-8 10 -8 20v4l38 273h1084l-3 -68l-825 -1283h626l77 149q10 19 38 19q27 0 42 -3t27 -8q28 -12 28 -30q0 -5 -1 -7l-93 -274h-1038z" />
<glyph unicode="[" horiz-adv-x="654" d="M185 -160v1831h429q33 0 33 -70q0 -71 -33 -71h-234v-1549h234q30 0 30 -70q0 -71 -30 -71h-429z" />
<glyph unicode="\" horiz-adv-x="913" d="M41 1606q0 32 75 32q41 0 90 -32l673 -1747q0 -29 -75 -29q-57 0 -97 29z" />
<glyph unicode="]" horiz-adv-x="654" d="M7 1601q0 70 33 70h429v-1831h-429q-30 0 -30 71q0 70 30 70h234v1549h-234q-33 0 -33 71z" />
<glyph unicode="^" horiz-adv-x="1180" d="M59 920l453 489q30 35 64 35q50 0 83 -35l459 -491q0 -38 -20 -61t-56 -23l-462 405l-445 -405q-76 0 -76 86z" />
<glyph unicode="_" horiz-adv-x="1178" d="M0 -164h1178v-123h-1178v123z" />
<glyph unicode="`" horiz-adv-x="1065" d="M211 1423q0 109 90 147q25 11 54 11h5l273 -285q-1 -43 -21 -66q-36 -42 -77 -42z" />
<glyph unicode="a" horiz-adv-x="1045" d="M69 261v3q0 153 113 239q99 76 247 76h247q0 167 -27.5 215.5t-66 67t-102.5 18.5h-102q12 -26 12 -59t-10 -58q-12 -25 -30 -43q-38 -38 -97 -39q-93 0 -127 82q-10 25 -10 62q0 36 21 68t55.5 55t78 37t88.5 22q79 14 173 14q93 0 161.5 -30t108.5 -81q69 -89 69 -252 v-517h168q27 0 27 -59q0 -26 -10 -51.5t-31 -30.5q-56 -16 -160 -16q-105 0 -117 3.5t-22 12.5q-19 17 -38 69q-122 -89 -294 -89q-154 0 -242 82q-83 76 -83 199zM271 291q0 -118 98 -148q29 -9 61 -9q126 0 246 100v195h-218q-80 0 -118 -27q-69 -48 -69 -111z" />
<glyph unicode="b" horiz-adv-x="1099" d="M-70 1491q0 44 26.5 54.5t70.5 17.5t93 11q93 8 177 9q43 0 45 -85v-559q138 82 247 82q108 0 183 -35q76 -36 130 -102q115 -140 115 -374v-8q0 -241 -139 -383q-130 -133 -336 -133q-80 0 -180 60q-24 14 -41 23l-70 -85q-10 -6 -25 -6q-30 0 -79 24q-43 21 -45 42 l45 181v1184h-176q-29 0 -39 52q-2 14 -2 30zM342 207q95 -67 188 -67q191 0 256 182q26 72 26 181t-25 175q-25 64 -62 102q-66 66 -160 67q-87 0 -169 -49q-30 -18 -54 -45v-546z" />
<glyph unicode="c" horiz-adv-x="1004" d="M82 510q0 240 145 380q136 130 347 131q226 -1 313 -99q33 -38 33 -81t-10 -68q-12 -25 -30 -43q-40 -39 -97 -39t-97 39q-40 38 -40 76t9 74h-93q-104 0 -179 -79q-96 -101 -96 -291q0 -278 155 -352q49 -24 100 -24t92 11t80 29q40 17 76 39l71 43q4 3 14 3 q9 0 23 -11.5t26 -27.5q26 -38 26 -63t-11 -34q-191 -143 -416 -143q-209 0 -327 145q-114 140 -114 385z" />
<glyph unicode="d" horiz-adv-x="1147" d="M83 512v3q0 240 149 379q136 127 351 127q101 0 176 -20v408h-176q-29 0 -39 49q-2 14 -2 30q0 48 27 58t71 17t92 11q92 8 177 9h1q42 0 44 -85v-1358h168q26 0 26 -60q0 -45 -15 -62t-22.5 -17.5t-28 -3t-52.5 -5.5q-87 -8 -135 -8q-49 0 -63 4q-14 3 -24 12 q-19 16 -38 69q-122 -89 -287 -89q-194 0 -299 146q-101 140 -101 386zM288 512q0 -105 21 -176.5t53 -116.5q62 -85 148 -85q129 0 249 100v568q-83 65 -188 65q-187 0 -257 -181q-26 -69 -26 -174z" />
<glyph unicode="e" horiz-adv-x="1041" d="M81 514q0 124 41 220q40 94 108 158q138 128 341 129h3q186 0 287 -117q101 -116 101 -335q0 -47 -43 -81q-42 -33 -106 -33h-527q18 -234 163 -300q46 -21 97 -21t91 11.5t77 29t72 39.5q73 46 86 46q12 -1 26 -12q12 -12 24 -28q26 -38 27 -64v-2q0 -24 -11 -32 q-183 -142 -416 -142q-209 0 -326 146q-115 142 -115 388zM286 605h471v4q0 198 -115 244q-36 14 -80 14t-92 -16q-48 -17 -88 -49q-89 -73 -96 -197z" />
<glyph unicode="f" horiz-adv-x="792" d="M64 847q0 110 13.5 132t29.5 22h10q116 0 132 23q6 8 6 20v126q0 288 179 379q66 34 135 34t107 -7t68 -26q70 -43 70 -133q0 -59 -40 -99q-38 -38 -97 -38q-93 0 -127 82q-10 25 -10 55v32h-1q-81 0 -87 -169q-2 -48 -2 -96v-183h269q25 0 25 -59q0 -58 -24 -86 q-7 -9 -19 -9h-251v-706h226q27 0 27 -61q0 -48 -15 -64t-26 -16h-569q-27 0 -27 61q0 48 15 64t26 16h10q116 0 132 23q6 8 6 20v663h-191z" />
<glyph unicode="g" horiz-adv-x="1130" d="M63 -166q0 43 14.5 82t38.5 72q24 34 55 64l64 65q-12 15 -24 29t-21 30q-21 38 -21 91q0 52 84 141q-68 45 -106.5 115.5t-38.5 157.5t38.5 150.5t99.5 104.5q119 80 282 80q59 0 117 -15h366q90 0 111 -61q6 -18 6 -39t-9 -40t-23 -31q-30 -26 -66 -26q-2 -1 -3 -1 q-34 0 -51 11q-16 11 -34 26q-48 41 -116 52q76 -86 76 -180t-37.5 -161t-98.5 -112q-123 -91 -298 -91q-39 0 -75 6q-34 -42 -34 -76t34.5 -58.5t91.5 -24.5h203q196 0 282 -85q67 -66 67 -192q0 -136 -128 -238q-151 -120 -416 -120q-217 0 -337 98q-50 41 -71.5 87 t-21.5 89zM258 -137q0 -149 241 -149q135 0 233 57q110 63 110 157q0 79 -108 107q-38 10 -93 10h-272l-34 -37q-77 -84 -77 -145zM318 690q0 -1 1 -1q0 -90 48 -138.5t110 -48.5t99.5 17t63.5 47q51 59 51 146v3q0 69 -49 119q-50 52 -110 52t-97 -14t-63 -40 q-54 -54 -54 -142z" />
<glyph unicode="h" horiz-adv-x="1249" d="M-7 1489q0 46 27 56.5t71 17.5q45 7 93 11q92 8 176 9q42 0 44 -85q0 -25 1 -52v-535q129 74 259 102q38 8 62 8q196 0 266 -102q54 -78 54 -276v-502h156q26 0 26 -61q0 -48 -15 -64t-26 -16h-454q-27 0 -27 61q0 48 15 64t26 16q104 0 104 43v297q0 192 -22 248.5 t-56.5 80t-93.5 23.5q-134 0 -274 -112v-580h168q26 0 26 -61q0 -48 -15 -64t-26 -16h-510q-26 0 -26 61q0 48 15 64t26 16h10q116 0 131 23q6 8 6 20v1225h-176q-28 1 -38 51q-2 14 -3 29z" />
<glyph unicode="i" horiz-adv-x="662" d="M34 927q0 46 27 56.5t71 17.5t92 11q92 8 177 9h1q42 0 44 -85v-795h168q26 0 26 -61q0 -48 -15 -64t-26 -16h-510q-26 0 -26 61q0 48 15 64t26 16h10q117 0 132 23q5 7 5 17v666h-176q-29 1 -39 51q-2 14 -2 29zM190 1409q0 95 83 129q25 10 54 10q58 0 97.5 -39.5 t39.5 -99.5q0 -59 -40 -99q-38 -38 -97 -38q-93 0 -127 82q-10 25 -10 55z" />
<glyph unicode="j" horiz-adv-x="568" d="M-92 -303q0 95 83 129q25 10 54 10q73 0 99 -67q90 0 90 231v847h-176q-30 1 -38 49q-2 14 -3 29q0 46 26 57q105 39 341 39h1q41 0 43 -85q0 -24 1 -52v-816q0 -191 -92 -339q-105 -169 -292 -169q-93 0 -127 82q-10 25 -10 55zM172 1409q0 95 84 129q26 10 54 10 q58 0 97.5 -39.5t39.5 -99.5v-3q0 -57 -39 -96q-38 -38 -98 -38q-94 0 -128 82q-10 25 -10 55z" />
<glyph unicode="k" horiz-adv-x="1209" d="M-7 1489q0 46 27 56.5t71 17.5q45 7 93 11q92 8 176 9q42 0 44 -85q0 -25 1 -52v-1305h105q27 0 27 -61q0 -49 -15.5 -64.5t-25.5 -15.5h-448q-26 0 -26 61q0 48 15 64t26 16h10q116 0 131 23q6 8 6 20v1225h-176q-28 1 -38 51q-2 14 -3 29zM417 600l403 401h212 q28 0 38 -52q2 -14 2 -27q0 -62 -26 -62q-97 0 -132 -14.5t-51 -30.5l-219 -222l350 -385q60 -67 160 -67q27 0 27 -63q0 -46 -15 -62t-26 -16h-261z" />
<glyph unicode="l" horiz-adv-x="621" d="M-7 1489q0 46 27 56.5t71 17.5q45 7 93 11q92 8 176 9q42 0 44 -85q0 -25 1 -52v-1305h168q26 0 26 -61q0 -48 -15 -64t-26 -16h-510q-26 0 -26 61q0 48 15 64t26 16h10q116 0 131 23q6 8 6 20v1225h-176q-28 1 -38 51q-2 14 -3 29z" />
<glyph unicode="m" horiz-adv-x="1931" d="M34 924q0 47 26.5 57.5t67.5 18.5t86 12q90 10 135 10h4q44 -1 53 -10q10 -10 14 -26q5 -17 5 -71v-19q151 84 275 115q40 10 67 10q185 0 266 -141q155 90 301 129q44 12 107 12t125 -26.5t98 -76.5q64 -88 64 -280v-497h155q27 0 27 -70q0 -71 -37 -71h-459 q-26 0 -26 61q0 49 24 73q7 7 15 7h2q104 0 104 43v297q0 194 -22 254.5t-56.5 86t-93.5 25.5q-111 0 -274 -129v-577h155q27 0 27 -70q0 -71 -41 -71h-455q-26 0 -26 59v4q0 46 25 71q7 7 14 7h2q104 0 104 43v297q0 194 -22 254.5t-56.5 86t-93.5 25.5q-111 0 -274 -129 v-577h168q26 0 26 -59q0 -49 -15.5 -65.5t-25.5 -16.5h-508q-28 0 -28 57q0 52 15 68t26 16h10q115 0 131 23q6 8 6 20v663h-176q-29 1 -39 51q-2 14 -2 26z" />
<glyph unicode="n" horiz-adv-x="1290" d="M34 925q0 46 26.5 56.5t67.5 18.5t86 12q90 10 135 10h4q44 -1 53 -10q10 -10 14 -26q5 -17 5 -71v-19q151 84 275 115q40 10 102 10q61 0 123 -26.5t98 -76.5q64 -88 64 -280v-497h155q27 0 27 -61q0 -48 -15 -64t-26 -16h-455q-26 0 -26 61q0 48 15 64t26 16 q104 0 104 43v297q0 194 -22 254.5t-56.5 86t-93.5 25.5q-111 0 -274 -129v-577h168q26 0 26 -61q0 -48 -15 -64t-26 -16h-510q-26 0 -26 61q0 48 15 64t26 16h10q115 0 131 23q6 8 6 20v663h-176q-31 1 -39 49q-2 14 -2 29z" />
<glyph unicode="o" horiz-adv-x="1093" d="M80 512q0 246 152 384q138 125 348 125h3q196 0 315 -149q114 -142 114 -368q0 -252 -140 -392q-132 -132 -355 -132q-107 0 -188 40t-137 112q-112 145 -112 380zM285 517q0 -102 19 -173q20 -70 54 -116q69 -94 191 -94q126 0 195 110q63 100 63 262q-1 271 -159 340 q-48 21 -97 21q-50 0 -95.5 -15t-83.5 -55t-62.5 -109.5t-24.5 -170.5z" />
<glyph unicode="p" horiz-adv-x="1177" d="M7 926q0 47 23 54.5t57.5 14.5t78.5 13q94 13 150 13q55 0 64 -5q10 -4 14 -16q5 -12 5 -59v-17q137 78 219 92q30 6 85 6h9q62 -1 137 -36.5t130 -101.5q116 -140 116 -378q0 -248 -137 -388q-129 -132 -338 -132q-82 0 -170 45q-20 10 -30 14v-342h222q27 0 27 -61 q0 -48 -15 -64t-26 -16h-565q-27 0 -27 61q0 48 15 64t26 16q125 0 142 23q6 8 6 20v1101h-177q-30 1 -38 49q-2 14 -3 30zM420 195q69 -55 188 -55q190 0 256 182q26 72 26 181q0 108 -25 173.5t-63 103.5q-66 67 -160 67h-3q-86 0 -165 -53q-30 -20 -54 -48v-551z" />
<glyph unicode="q" horiz-adv-x="1116" d="M83 512v3q0 240 149 379q136 127 349 127q105 0 238 -37l63 82q6 2 12 2h15q59 0 104 -36q13 -10 19 -23l-78 -246v-1061h164q26 0 26 -59q0 -50 -15 -66t-26 -16h-579q-27 0 -27 63q0 46 15 62t26 16h84q116 0 132 24q5 7 5 16v322q-67 -55 -193 -77q-40 -7 -111 -7 t-146 38t-125 108q-101 140 -101 386zM288 512q0 -105 23 -176.5t58 -116.5q66 -85 168 -85t222 100v568q-83 65 -188 65q-187 0 -257 -181q-26 -69 -26 -174z" />
<glyph unicode="r" horiz-adv-x="901" d="M36 921q0 50 25.5 61t66.5 18q42 8 86 12q84 8 133 9h8q41 0 49 -5q10 -4 14 -14q5 -10 5 -43v-12l-1 -40q0 -12 -0.5 -24t-0.5 -22q117 107 235 147q38 12 79 13h2q39 0 70 -15q32 -16 51 -38q34 -40 34 -83q0 -44 -11 -69t-31 -43q-42 -39 -83 -39q-42 0 -64 11.5 t-39 29.5q-36 38 -36 85q-58 -27 -88 -62t-50 -65l-44 -68v-524h243q23 0 23 -61q0 -49 -14.5 -64.5t-26.5 -15.5h-582q-28 0 -28 63q1 46 27 71q8 7 35 7t55.5 2.5t44.5 7.5q28 9 28 33v659h-176q-39 0 -39 78z" />
<glyph unicode="s" horiz-adv-x="926" d="M76 181q0 34 10 59q12 26 30 44q39 38 98 38q58 0 98 -39q40 -38 40 -86v-1q-1 -50 -5 -62h114q139 0 187 85q14 26 14 57t-14.5 53.5t-45.5 41.5q-47 29 -156.5 62.5t-166.5 58t-99 58.5q-86 72 -86 198q0 185 207 249q78 24 154 24q75 0 139 -10q66 -10 118 -34 q119 -55 119 -157v-5q0 -56 -39 -95q-38 -38 -98 -39q-94 0 -128 82q-10 25 -10 41t12 76h-99q-81 0 -120 -28q-71 -49 -71 -108q0 -78 140 -126l76 -26q193 -64 248 -109t80 -98t25 -121q0 -69 -27 -119q-26 -51 -74 -87q-103 -78 -268 -78q-146 0 -262 44q-86 32 -122 92 q-18 30 -18 65z" />
<glyph unicode="t" horiz-adv-x="731" d="M27 847q0 110 13.5 132t29.5 22h10q123 0 148 23q10 8 11 20l43 221q12 55 130 55v-319h270q25 0 25 -59q-1 -58 -25 -86q-7 -9 -18 -9h-252v-590q0 -112 66 -112q75 0 106.5 11.5t43.5 11.5q11 0 22.5 -7.5t19.5 -19.5q17 -26 17 -54q0 -30 -19 -39q-129 -68 -246 -68 q-205 0 -205 277v590h-190z" />
<glyph unicode="u" horiz-adv-x="1234" d="M21 923q0 50 20 55q168 43 307 43q44 0 46 -80v-530q0 -195 100 -233q30 -12 75 -12q44 0 84.5 10t72.5 24q30 15 54 32l43 32v583h-137q-41 0 -41 74q0 47 26.5 57.5t64.5 18.5q38 7 79 13q78 10 125 11h3q43 0 53 -11q12 -10 16 -28q6 -25 6 -88v-753h168q27 0 27 -65 q0 -70 -41 -76q-102 -16 -182 -16t-94 8t-24 22q-16 22 -38 82q-159 -116 -287 -116q-252 0 -324 202q-24 67 -24 156v509h-141q-37 0 -37 76z" />
<glyph unicode="v" horiz-adv-x="1096" d="M4 920q0 49 14 65t25 16h434q25 0 25 -57q0 -52 -15 -68t-26 -16q-88 0 -88 -43l198 -549l242 592h-131q-26 0 -26 58q0 52 13.5 67.5t22.5 15.5h375q25 0 25 -57q0 -52 -24 -76q-8 -8 -24 -8q-17 0 -32 -2q-14 -2 -24 -8q-16 -9 -25 -33l-334 -817q-7 -18 -39 -19 t-48 -1q-56 0 -65 20l-335 860h-112q-26 0 -26 60z" />
<glyph unicode="w" horiz-adv-x="1563" d="M8 921q0 48 15 64t24 16h434q25 0 25 -57q0 -52 -15 -68t-26 -16q-88 0 -88 -43l136 -601l249 690q9 19 50 19q44 0 52 -18l254 -705l159 658h-131q-26 0 -26 59q0 49 13.5 65.5t22.5 16.5h375q24 0 24 -70q0 -71 -40 -71q-63 0 -79 -24q-6 -8 -9 -19l-244 -817 q-7 -20 -68 -20q-72 0 -79 20l-235 587l-239 -587q-7 -17 -37.5 -18.5t-39.5 -1.5h-23q-14 0 -26 2q-30 4 -33 18l-241 860h-129q-25 0 -25 61z" />
<glyph unicode="x" horiz-adv-x="1174" d="M35 61q0 47 26 73q7 7 38 7t67 17t53 38l246 324l-273 340h-122q-27 0 -27 58q0 50 14.5 66.5t24.5 16.5h437q23 0 23 -57q0 -53 -15.5 -68.5t-26.5 -15.5q-64 0 -64 -18q0 -7 7 -16l190 -238l203 272h-124q-26 0 -26 59q0 51 13.5 66.5t22.5 15.5h384q24 0 24 -58 q0 -51 -15 -67t-25 -16q-76 0 -110 -43l-265 -331l230 -289q41 -49 119 -55q16 -1 33 -1h16q26 0 26 -61q0 -48 -15 -64t-26 -16h-425q-27 0 -27 61q0 47 28 73q8 7 14 7h83l-221 274l-176 -244q-7 -10 -7 -17q0 -13 18 -13h57q26 0 26 -60q0 -49 -15 -65t-26 -16h-366 q-26 0 -26 61z" />
<glyph unicode="y" horiz-adv-x="1098" d="M6 920q0 49 14 65t25 16h434q25 0 25 -57q0 -51 -15.5 -67.5t-25.5 -16.5q-88 0 -88 -43l203 -594l237 637h-131q-26 0 -26 58q0 52 13.5 67.5t22.5 15.5h375q25 0 25 -57q0 -52 -24 -76q-8 -8 -24 -8q-17 0 -32 -2q-14 -2 -24 -8q-16 -9 -25 -33l-422 -1077 q-32 -83 -104 -131.5t-177 -48.5q-140 0 -196 92q-20 34 -20 73q-1 2 -1 3q0 37 11 62q10 26 28 44q40 40 87 40h2q48 -1 74 -14q25 -14 41 -36q28 -41 29 -110q32 0 55.5 36t41 77t30 77.5t21 64.5t11.5 37l-332 854h-112q-26 0 -26 60z" />
<glyph unicode="z" horiz-adv-x="1007" d="M75 736q0 3 4 23l44 242h800v-111l-569 -740h415l47 109q10 21 35 21t39 -3q12 -3 24 -9q26 -12 26 -30q0 -5 -1 -7l-72 -231h-778v110l569 741h-393l-30 -110q-11 -42 -85 -42q-75 0 -75 37z" />
<glyph unicode="{" horiz-adv-x="667" d="M62 683q0 61 29 67q70 10 87 32q28 35 28 109v461q0 251 150 302q50 17 117 17h164q28 0 28 -69q0 -72 -28 -72h-79q-100 0 -132 -48q-25 -37 -25 -136v-445q0 -124 -97 -185q-34 -22 -83 -34q180 -52 180 -225v-309q0 -92 19 -118q35 -49 138 -49h79q28 0 28 -70 q0 -71 -28 -71h-164q-139 0 -201 66q-66 71 -66 244v321q0 76 -17 97q-27 33 -98 43q-29 4 -29 72z" />
<glyph unicode="|" horiz-adv-x="516" d="M181 -455v2063q0 28 77 28t77 -28v-2063q0 -28 -77 -28t-77 28z" />
<glyph unicode="}" horiz-adv-x="667" d="M2 -89q0 70 28 70h84q97 0 128 43q24 33 24 133v300q0 172 180 225q-180 45 -180 221v443q0 100 -20 130q-37 54 -137 54h-79q-28 0 -28 72q0 69 28 69h168q133 0 196 -71q66 -74 67 -248v-469q0 -68 17 -88q28 -35 98 -45q29 -6 29 -67q0 -42 -10.5 -56.5t-32.5 -17.5 t-44 -11q-24 -8 -36 -24q-21 -26 -21 -96v-328q0 -250 -150 -295q-50 -15 -117 -15h-164q-28 0 -28 71z" />
<glyph unicode="~" horiz-adv-x="1218" d="M109 557q65 119 179 175q48 24 93 24q44 0 81 -11t78.5 -27t85.5 -35t84 -35q96 -38 131 -38t60 15.5t46 37t38 43t31 33.5q38 0 60 -21q38 -36 38 -71q-54 -121 -168 -180q-48 -25 -96 -25q-49 0 -90 10t-84 24q-44 14 -88 32l-84 32q-94 34 -129 35h-3q-34 0 -59 -14 q-27 -14 -48 -32t-36 -36.5t-26 -27.5q-37 1 -59 21q-35 34 -35 71z" />
<glyph unicode="&#xa1;" horiz-adv-x="568" d="M144 886q0 45 11 70.5t31 43.5q42 40 100 40q90 0 123 -84q10 -26 10 -55q0 -30 -10 -55q-9 -26 -27 -45q-37 -40 -96 -40q-58 0 -100 40t-42 85zM150 -407l50 992q0 27 54 38q14 3 29 3q86 0 86 -44l47 -991q-49 -30 -140 -30q-92 0 -126 32z" />
<glyph unicode="&#xa2;" horiz-adv-x="1002" d="M65 705q0 241 145 381q136 130 347 130q226 0 313 -98q33 -38 33 -81q0 -44 -10.5 -69t-28.5 -43q-40 -39 -98 -39t-98 39q-40 38 -40 75q0 1 1 1q0 38 9 74h-93q-104 0 -179 -79q-96 -101 -96 -291q0 -279 155 -353q48 -24 98 -24q1 0 2 1q51 0 92 11t80 28.5t75 39.5 l72 43q4 3 14 3q9 0 23 -12q13 -12 25 -28q26 -38 27 -62v-3q0 -22 -11 -31q-191 -143 -416 -143q-208 0 -326 145q-114 140 -115 385zM467 0v295h141v-295q-25 -27 -69 -27q-45 0 -72 27zM467 1171h141v232q-29 29 -70 29q-42 0 -71 -29v-232z" />
<glyph unicode="&#xa3;" horiz-adv-x="1164" d="M61 134q0 66 45 111t109 45q52 0 86 -20l46 -26q41 104 41 362h-232q-28 0 -38 51q-2 13 -2 25q-1 1 -1 3q0 10 3 22q2 13 7 25q12 28 31 28h232v433q0 167 118 257q98 75 237 75h4q165 0 239 -46q21 -14 21 -59q-1 -69 -41 -111q-12 -13 -24 -13t-42 14q-74 35 -162 35 h-3q-66 0 -97 -45q-39 -56 -39 -190v-350h263q26 0 36 -51q2 -13 3 -24q0 -46 -14.5 -62.5t-24.5 -16.5h-263q-4 -39 -7 -84.5t-12 -97.5q-21 -122 -81 -234q149 -56 251 -56q83 0 114 19q55 34 102 129q12 23 38 23t41 -4q15 -3 27 -11q29 -17 33 -43q-65 -210 -193 -253 q-42 -14 -85 -14q-44 0 -94 6q-51 4 -107 14q-122 21 -230 52q-13 -6 -33.5 -18t-44.5 -24q-61 -30 -98 -30t-65 11.5t-49 32.5q-45 45 -45 110z" />
<glyph unicode="&#xa4;" horiz-adv-x="1184" d="M97 1028q1 59 47 102q44 41 100 41l116 -116q103 66 227 66q123 0 231 -73l122 125h3q54 0 98 -41q46 -43 46 -100l-125 -127q78 -121 78 -256q0 -136 -74 -254l123 -124q0 -53 -47 -99q-45 -44 -99 -44h-2l-121 122q-111 -75 -233 -75t-228 69l-113 -118q-57 0 -103 46 q-44 44 -44 95l116 117q-82 125 -82 267q0 141 80 261zM333 649q1 -118 71 -200q72 -84 187 -84q59 0 106.5 22.5t81.5 61.5q70 80 70 200q0 124 -70 204q-74 85 -189 85q-112 0 -186 -85q-70 -82 -71 -204z" />
<glyph unicode="&#xa5;" horiz-adv-x="1275" d="M59 1424q0 49 14 65t25 16h470q25 0 25 -57q0 -52 -15 -68t-26 -16q-106 0 -106 -35q0 -4 6 -22l227 -525l239 582h-86q-26 0 -26 58q0 52 13.5 67.5t22.5 15.5h350q25 0 25 -57q0 -52 -24 -76q-9 -8 -37 -8q-71 0 -88 -43l-156 -382h146q26 0 36 -51q2 -13 3 -24v-4 q0 -9 -2 -21q-3 -14 -7 -26q-10 -28 -30 -28h-209l-89 -219h298q26 0 36 -50q2 -13 3 -24v-4q0 -10 -2 -22q-3 -14 -7 -26q-10 -28 -30 -28h-301v-271h189q26 0 26 -61q0 -48 -15 -64t-26 -16h-573q-25 0 -25 57v3q0 47 27 74q7 7 14 7h63q91 0 105 25q4 8 4 18v228h-330 q-28 0 -38 52q-2 13 -2 25q-1 1 -1 3q0 10 3 22q2 12 7 24q12 28 31 28h327l-95 219h-236q-28 0 -38 52q-2 13 -3 24q0 46 15 62t26 16h169l-184 425h-112q-26 0 -26 60z" />
<glyph unicode="&#xa6;" horiz-adv-x="522" d="M184 -455v971h154v-971q0 -28 -77 -28t-77 28zM184 694v914q0 28 77 28t77 -28v-914h-154z" />
<glyph unicode="&#xa7;" horiz-adv-x="1148" d="M67 -95q0 66 45 111t109 45q65 0 109 -45q44 -46 44 -111q0 -30 -11.5 -54t-16.5 -38q65 -35 161 -35t154 20q57 19 99 53q88 73 89 183v1q0 118 -205 225l-269 136q-273 144 -273 377q0 90 38 179l21 49q-60 91 -60 196q0 104 41 175q42 72 110 119q134 92 345 92 q155 -1 291 -71q157 -80 157 -212v-2q-1 -64 -45 -110q-43 -44 -108 -44t-109 44q-45 45 -45 95t30 110q-59 36 -141 36q-83 0 -138 -14.5t-94 -42.5q-83 -60 -83 -164q0 -80 88 -144q42 -32 102 -62l136 -70q221 -110 311 -199q111 -109 111 -257h-1q0 -84 -59 -238 q60 -91 60 -190q0 -100 -38 -176q-38 -78 -106 -132q-143 -115 -361 -115h-4q-170 0 -315 71q-169 83 -169 209zM313 789q0 -36 21.5 -74.5t63.5 -74.5q72 -63 234 -147l211 -109q6 24 6 67t-28 84.5t-73.5 78t-104.5 68.5l-325 171q-5 -28 -5 -64z" />
<glyph unicode="&#xa8;" horiz-adv-x="1065" d="M178 1327q0 95 80 129q24 10 54 10t56 -10q26 -12 44 -30q39 -39 39 -96v-6q0 -57 -39 -96q-38 -38 -84 -38q-76 0 -113 39t-37 98zM631 1327q0 95 80 129q25 10 55 10q58 0 98 -40q38 -38 39 -99q0 -94 -82 -127q-25 -10 -55 -10q-92 0 -125 82q-10 25 -10 55z" />
<glyph unicode="&#xa9;" horiz-adv-x="1686" d="M67 745v11q0 209 105 387q103 175 279 277q181 105 392 105t392 -105q177 -102 279 -277q105 -178 105 -387v-8q0 -209 -105 -387q-102 -173 -279 -276q-181 -105 -392 -105q-321 0 -549 225q-144 142 -200 341q-27 96 -27 199zM198 752q0 -137 49.5 -256t136.5 -207.5 t205 -139.5t254 -51q271 0 458 190t187 464q0 272 -187 463q-188 192 -458 192q-136 0 -254 -51.5t-205 -140.5t-136.5 -208t-49.5 -255zM365 753q0 241 145 382q136 132 347 132q226 -1 313 -99q33 -38 33 -81t-10.5 -68t-28.5 -43q-40 -39 -98 -39t-98 39q-39 37 -39 95 v17q0 6 2 15q-37 10 -82 10q-46 0 -94 -16.5t-89 -57.5q-96 -96 -96 -286q0 -279 155 -353q48 -24 98 -24q1 0 2 1q51 0 92 11t80 28.5t75 39.5l72 43q54 -15 76 -73q6 -18 6 -30q0 -18 -4 -30q-177 -143 -416 -143q-208 0 -326 145q-114 140 -115 385z" />
<glyph unicode="&#xaa;" horiz-adv-x="915" d="M119 662q0 10 2 21q1 11 5 21q8 23 24 23h610q19 0 27 -41q2 -10 2 -20q0 -39 -11.5 -52.5t-18.5 -13.5h-609q-21 0 -29 42q-2 10 -2 20zM131 1024q0 65 19.5 106t51.5 69q67 58 157 58h182q0 97 -43 137.5t-124 40.5q-29 0 -48 -4q7 -16 7 -44t-24 -52.5t-61 -24.5 q-38 0 -62.5 24.5t-24.5 57.5t14 53t37 34.5t52 23.5q28 9 58 13q56 8 114 9h2q56 0 101 -20q45 -21 73 -55q52 -63 52 -167v-321h106q16 0 16 -28q0 -58 -26 -63q-40 -9 -156 -9q-21 0 -33 18t-24 53q-55 -44 -167 -67q-34 -7 -72 -7t-74 14q-36 15 -59 39q-44 47 -44 112z M260 1052q0 -23 7 -38.5t19 -23.5q20 -14 54 -14q2 -1 5 -1q31 0 57 7q28 6 55 16q52 18 84 39v123h-161q-50 0 -76 -23.5t-35 -42.5t-9 -42z" />
<glyph unicode="&#xab;" horiz-adv-x="1186" d="M43 502q0 68 41 100l421 333q30 0 51 -22q37 -39 37 -73l-306 -305l306 -351q0 -34 -19 -56q-34 -38 -68 -38l-422 339q-41 33 -41 73zM542 513q0 55 40 88l421 334q32 0 53 -22q37 -39 37 -73l-307 -305l307 -351q0 -34 -20 -55q-36 -39 -69 -39l-423 339q-39 31 -39 84 z" />
<glyph unicode="&#xac;" horiz-adv-x="1119" d="M83 655q0 10 3 22q2 13 7 25q12 27 30 27h810q72 0 72 -84v-360q0 -27 -50 -37q-13 -2 -24 -2q-47 0 -63.5 14.5t-16.5 24.5v290h-727q-28 0 -38 52q-2 13 -2 25q-1 1 -1 3z" />
<glyph unicode="&#xad;" horiz-adv-x="750" d="M159 604q0 11 3 23q2 15 7 29q12 33 31 33h447q25 0 35 -59q2 -14 3 -26q0 -52 -14.5 -71.5t-24.5 -19.5h-447q-27 0 -37 61q-2 14 -2 26q-1 2 -1 4z" />
<glyph unicode="&#xae;" horiz-adv-x="1088" d="M68 980q0 197 139.5 336.5t337.5 139.5q196 0 335.5 -139.5t139.5 -336.5q0 -196 -140 -336q-138 -138 -335 -139q-199 1 -337 139q-140 140 -140 336zM176 981q0 -155 108 -267q107 -110 260 -110q135 0 237 89h-43q-42 0 -67 39l-127 200q-26 -2 -53 -2v-174h84 q10 -4 10 -30q0 -27 -15 -33h-220q-9 9 -9 24t5.5 26.5t10.5 12.5q26 0 31 4t5 13v416q0 6 -5 6h-42q-15 4 -15 31q0 26 10 32h228q87 0 138.5 -41.5t51.5 -113.5q0 -115 -114 -156l109 -168q19 -28 78 -33q81 104 81 235q-1 157 -109 267q-110 111 -260 111 q-151 0 -260 -111q-108 -110 -108 -267zM491 1001q85 0 111 11q50 22 50 90q0 90 -161 90v-191z" />
<glyph unicode="&#xaf;" horiz-adv-x="1065" d="M192 1304q0 67 16 67h637q11 0 13 -17.5t2 -66.5q0 -50 -15 -50h-637q-16 0 -16 67z" />
<glyph unicode="&#xb0;" horiz-adv-x="855" d="M67 1140q0 154 103 259t256 105q160 0 262 -105q100 -104 100 -259q0 -157 -100 -256t-260 -99q-79 0 -144.5 26t-113.5 73q-103 101 -103 256zM227 1140q1 -138 121 -186q36 -14 80 -14q1 -1 2 -1q42 0 78 15q37 14 64 40q56 54 56 146q0 89 -56 147q-58 60 -146 60 q-84 0 -142 -60q-57 -59 -57 -147z" />
<glyph unicode="&#xb1;" horiz-adv-x="1093" d="M81 718q0 72 17 72h376v308q0 16 72 16t72 -16v-308h377q16 0 16 -72t-16 -72h-377v-338q0 -16 -72 -16t-72 16v338h-376q-17 0 -17 72zM85 76q0 46 15 62t26 16h842q26 0 36 -50q2 -13 3 -24v-4q0 -10 -2 -22q-3 -14 -7 -26q-10 -28 -30 -28h-842q-28 0 -38 52 q-2 13 -3 24z" />
<glyph unicode="&#xb2;" horiz-adv-x="808" d="M93 1310q0 48 22 88t62 68q82 58 219 59h4q211 0 274 -121q22 -39 22 -100v-2q-1 -63 -26.5 -111.5t-65 -85t-89 -67t-97.5 -64.5q-114 -80 -151 -181h328l28 78q17 13 46 13q28 0 44 -29l-31 -208h-569v43q1 194 199 354q126 101 162 151.5t36 94.5t-12 70 q-12 27 -32 44q-39 32 -90 32t-77 -9t-49 -32q32 -13 44 -61q4 -14 4 -26q0 -47 -29 -76t-72 -29q-44 0 -74 29.5t-30 77.5z" />
<glyph unicode="&#xb3;" horiz-adv-x="800" d="M89 843q0 50 31.5 78.5t64.5 28.5t51 -7.5t32 -21.5q30 -30 30 -76q0 -47 -46 -81q41 -41 130 -41h2q59 0 96 49q37 48 37 125v6q0 67 -21 97q-40 58 -126 67v54q67 34 90 60q44 51 44 125q0 54 -41 92q-40 37 -85 37h-2q-89 0 -129 -40q31 -15 45 -58q4 -12 4 -21 q0 -54 -29 -84t-74 -30t-74.5 30.5t-29.5 82.5q0 51 28.5 90t73.5 65q93 54 215 55q204 0 266 -127q18 -38 19 -80v-3q0 -41 -15 -73q-16 -32 -40 -58q-47 -50 -119 -76q99 -41 131 -69q71 -62 71 -159q0 -182 -188 -230q-58 -16 -120 -16q-2 0 -4 1q-64 0 -119 14 q-54 15 -98 41q-100 60 -101 153z" />
<glyph unicode="&#xb4;" horiz-adv-x="1065" d="M440 1296l273 285h3q62 0 103 -43q43 -44 43 -115l-323 -235q-42 0 -63 24q-36 41 -36 84z" />
<glyph unicode="&#xb5;" horiz-adv-x="1239" d="M164 -380v1381h195v-366q0 -365 95 -441q34 -28 87 -28t99.5 35t79.5 107q69 151 69 446v247h145q49 0 49 -40v-646q0 -105 17 -133.5t32.5 -34.5t34.5 -6h84q29 -9 29 -47q0 -82 -43 -94q-7 -1 -27 -3l-44 -5q-66 -6 -104 -6q-39 0 -67.5 12t-49.5 38q-46 58 -46 167 q-32 -100 -72 -140q-80 -83 -202 -83q-185 0 -244 159q14 -182 88 -504q-8 -32 -41 -53t-78 -21q-86 0 -86 59z" />
<glyph unicode="&#xb6;" horiz-adv-x="1579" d="M59 1044q0 232 169.5 346.5t489.5 114.5h766q25 0 25 -70q0 -71 -35 -71h-180v-1223h168q26 0 26 -61q0 -48 -15 -64t-26 -16h-898q-25 0 -25 57q0 49 28 77q8 8 31 8h4q4 -1 8 -1q23 0 47 3q29 2 45 7q28 9 28 33v445h-152q-231 1 -367 111q-137 111 -137 304zM292 1089 q0 -88 34 -147t92 -95q110 -68 297 -68v572q-217 0 -288.5 -34.5t-103 -87t-31.5 -140.5zM926 141h19q116 0 132 23q6 8 6 20v1164q0 16 -13 16h-144v-1223z" />
<glyph unicode="&#xb7;" horiz-adv-x="522" d="M124 564q0 30 10 55q12 25 30 43q39 38 97 38q93 0 127 -81q10 -25 10 -55t-10 -55q-12 -25 -30 -43q-40 -38 -97 -38q-93 0 -127 81q-10 25 -10 55z" />
<glyph unicode="&#xb8;" horiz-adv-x="1188" d="M409 -382q0 54 29 54q142 0 194 50q17 15 17 36v2q0 61 -136 61l-39 48l52 146h159l-36 -105q115 -20 155 -92q13 -22 13 -50v-4q0 -204 -368 -204q-20 0 -30 20q-10 18 -10 38z" />
<glyph unicode="&#xb9;" horiz-adv-x="720" d="M76 1338q0 1 1 1q0 16 9 22l338 164h15q37 0 37 -12v-763h141q15 0 15 -51q0 -52 -21 -52h-481q-12 0 -12 35q0 68 24 68h86q63 0 63 25v508q0 35 -9 35q-10 0 -31 -9l-93 -39q-22 -9 -30 -9q-9 0 -17.5 9.5t-16.5 22.5q-18 29 -18 45z" />
<glyph unicode="&#xba;" horiz-adv-x="913" d="M112 1187q0 162 112 255q100 83 253 83h3q145 0 230 -99q82 -95 82 -244q0 -166 -102 -258q-96 -87 -256 -87h-4q-78 0 -136 27q-60 26 -100 73q-82 96 -82 250zM125 662q0 10 2 21q1 11 5 21q8 23 24 23h610q19 0 27 -41q2 -10 2 -20q0 -39 -11.5 -52.5t-18.5 -13.5 h-609q-21 0 -29 42q-2 10 -2 20zM261 1186q0 -124 53 -185.5t140 -61.5q92 0 142 72q46 66 46 151q0 84 -14.5 129t-40.5 75q-50 57 -135 57h-3q-123 0 -170 -119q-18 -46 -18 -118z" />
<glyph unicode="&#xbb;" horiz-adv-x="1184" d="M93 185l306 305l-306 351v3q0 31 19 52q35 39 69 39l422 -340q40 -32 40 -72q0 -68 -41 -100l-420 -333q-31 0 -52 22q-37 39 -37 73zM592 185l306 305l-306 351q0 33 20 55q35 39 68 39l422 -340q41 -35 41 -74q0 -66 -42 -98l-420 -333q-32 0 -53 22q-36 39 -36 73z " />
<glyph unicode="&#xbc;" horiz-adv-x="1770" d="M68 1338q0 1 1 1q0 16 9 22l338 164h15q37 0 37 -12v-763h141q15 0 15 -51q0 -52 -21 -52h-481q-12 0 -12 35q0 68 24 68h86q63 0 63 25v508q0 35 -9 35q-10 0 -31 -9l-93 -39q-22 -9 -30 -9q-9 0 -17.5 9.5t-16.5 22.5q-18 29 -18 45zM334 0l992 1505q20 32 96 32 q62 0 62 -32l-984 -1505q-22 -30 -103 -30q-63 0 -63 30zM986 280l318 600q69 0 119 -38q44 -34 44 -66l-330 -435h245v189q0 45 124 56q32 3 61 3v-248h130q17 0 17 -48q0 -35 -12 -50t-19 -15h-116v-125h105q17 0 17 -51q0 -52 -25 -52h-455q-16 0 -16 42q0 30 12 45.5 t18 15.5h83q76 0 76 25v100h-364q-26 12 -32 52z" />
<glyph unicode="&#xbd;" horiz-adv-x="1767" d="M60 1338q0 1 1 1q0 16 9 22l338 164h15q37 0 37 -12v-763h141q15 0 15 -51q0 -52 -21 -52h-481q-12 0 -12 35q0 68 24 68h86q63 0 63 25v508q0 35 -9 35q-10 0 -31 -9l-93 -39q-22 -9 -30 -9q-9 0 -17.5 9.5t-16.5 22.5q-18 29 -18 45zM326 0l992 1505q20 32 96 32 q62 0 62 -32l-984 -1505q-22 -30 -103 -30q-63 0 -63 30zM1076 663q0 48 22 88q22 41 62 69q82 58 219 58q213 0 277 -122q22 -40 22 -102t-25.5 -110.5t-65 -85t-89.5 -66.5q-48 -30 -96 -64q-114 -80 -152 -182h328l28 78q17 13 46 13q28 0 44 -29l-31 -208h-569v43 q0 193 198 353q126 101 162.5 152t36.5 95t-11.5 70.5t-31.5 43.5q-39 32 -90 32q-52 0 -78 -9t-49 -32q33 -12 45 -60q3 -11 3 -22v-5q0 -47 -29 -76t-72 -29q-44 0 -74 29.5t-30 77.5z" />
<glyph unicode="&#xbe;" horiz-adv-x="1831" d="M83 843q0 50 31.5 78.5t64.5 28.5t51 -7.5t32 -21.5q30 -30 30 -76q0 -47 -46 -81q41 -41 130 -41h2q59 0 96 49q37 48 37 125v6q0 67 -21 97q-40 58 -126 67v54q67 34 90 60q44 51 44 125q0 54 -41 92q-40 37 -85 37h-2q-89 0 -129 -40q31 -15 45 -58q4 -12 4 -21 q0 -54 -29 -84t-74 -30t-74.5 30.5t-29.5 82.5q0 51 28.5 90t73.5 65q93 54 215 55q204 0 266 -127q18 -38 19 -80v-3q0 -41 -15 -73q-16 -32 -40 -58q-47 -50 -119 -76q99 -41 131 -69q71 -62 71 -159q0 -182 -188 -230q-58 -16 -120 -16q-2 0 -4 1q-64 0 -119 14 q-54 15 -98 41q-100 60 -101 153zM346 0l992 1505q20 32 96 32q62 0 62 -32l-984 -1505q-22 -30 -103 -30q-63 0 -63 30zM1048 280l318 600q69 0 119 -38q44 -34 44 -66l-330 -435h245v189q0 45 124 56q32 3 61 3v-248h130q17 0 17 -48q0 -35 -12 -50t-19 -15h-116v-125h105 q17 0 17 -51q0 -52 -25 -52h-455q-16 0 -16 42q0 30 12 45.5t18 15.5h83q76 0 76 25v100h-364q-26 12 -32 52z" />
<glyph unicode="&#xbf;" horiz-adv-x="949" d="M83 -80q0 148 117 270q52 54 116 104l129 101v155q0 45 63 59q18 4 38 4q94 0 94 -63v-178q-55 -49 -115 -91q-60 -41 -110 -89q-115 -109 -115 -252q0 -102 63 -164q62 -60 166 -60h35q45 0 89 11q-23 41 -23 79t11 64t30 44q41 39 85 39t70 -11q26 -10 44 -28 q40 -40 40 -93q0 -54 -22 -90.5t-58 -64t-80 -47.5q-45 -21 -91 -33q-90 -24 -175 -24q-86 0 -164 29t-130 78q-106 99 -107 251zM405 865q0 44 11 69.5t30 43.5q41 40 85 40t69.5 -10.5t44 -29t29.5 -44t11 -55.5t-11 -55q-12 -26 -30 -45q-39 -40 -83 -40 q-45 0 -70.5 10.5t-44.5 29.5q-41 41 -41 86z" />
<glyph unicode="&#xc0;" horiz-adv-x="1424" d="M-12 57q0 52 24 76q8 8 36 8q74 0 97 57l509 1307q8 20 39 20q67 0 75 -20l533 -1364h117q26 0 26 -60q0 -50 -14.5 -65.5t-24.5 -15.5h-485q-25 0 -25 55q0 52 15 69t26 17q124 0 124 24q0 9 -8 25l-119 309h-507l-139 -358h172q26 0 26 -58q0 -52 -13.5 -67.5 t-22.5 -15.5h-436q-25 0 -25 57zM321 1833q0 109 90 147q25 11 54 11h5l273 -285q-1 -43 -21 -66q-36 -42 -77 -42zM485 653h389l-193 504z" />
<glyph unicode="&#xc1;" horiz-adv-x="1424" d="M-12 57q0 52 24 76q8 8 36 8q74 0 97 57l509 1307q8 20 39 20q67 0 75 -20l533 -1364h117q26 0 26 -60q0 -50 -14.5 -65.5t-24.5 -15.5h-485q-25 0 -25 55q0 52 15 69t26 17q124 0 124 24q0 9 -8 25l-119 309h-507l-139 -358h172q26 0 26 -58q0 -52 -13.5 -67.5 t-22.5 -15.5h-436q-25 0 -25 57zM485 653h389l-193 504zM683 1706l273 285h3q62 0 103 -43q43 -44 43 -115l-323 -235q-42 0 -63 24q-36 41 -36 84z" />
<glyph unicode="&#xc2;" horiz-adv-x="1424" d="M-12 57q0 52 24 76q8 8 36 8q74 0 97 57l509 1307q8 20 39 20q67 0 75 -20l533 -1364h117q26 0 26 -60q0 -50 -14.5 -65.5t-24.5 -15.5h-485q-25 0 -25 55q0 52 15 69t26 17q124 0 124 24q0 9 -8 25l-119 309h-507l-139 -358h172q26 0 26 -58q0 -52 -13.5 -67.5 t-22.5 -15.5h-436q-25 0 -25 57zM381 1709l256 177q43 28 71 28q36 0 78 -28l256 -177q0 -63 -51 -91q-15 -8 -33 -9l-245 117l-248 -117q-34 1 -53 23q-31 38 -31 77zM485 653h389l-193 504z" />
<glyph unicode="&#xc3;" horiz-adv-x="1424" d="M-12 57q0 52 24 76q8 8 36 8q74 0 97 57l509 1307q8 20 39 20q67 0 75 -20l533 -1364h117q26 0 26 -60q0 -50 -14.5 -65.5t-24.5 -15.5h-485q-25 0 -25 55q0 52 15 69t26 17q124 0 124 24q0 9 -8 25l-119 309h-507l-139 -358h172q26 0 26 -58q0 -52 -13.5 -67.5 t-22.5 -15.5h-436q-25 0 -25 57zM288 1719q66 117 180 174q48 24 99 24t87.5 -22.5t71.5 -50t70.5 -50t69.5 -22.5q33 0 58 15.5t46 36.5t38 43t31 34q38 0 60 -21q38 -36 38 -71q-53 -121 -167 -180q-48 -25 -97 -25t-78.5 10t-55.5 24.5t-49.5 32t-45.5 31.5 q-54 34 -90 35h-3q-34 0 -59 -14q-27 -14 -48 -32t-36.5 -36.5t-25.5 -27.5q-40 1 -60 21q-34 34 -34 71zM485 653h389l-193 504z" />
<glyph unicode="&#xc4;" horiz-adv-x="1424" d="M-12 57q0 52 24 76q8 8 36 8q74 0 97 57l509 1307q8 20 39 20q67 0 75 -20l533 -1364h117q26 0 26 -60q0 -50 -14.5 -65.5t-24.5 -15.5h-485q-25 0 -25 55q0 52 15 69t26 17q124 0 124 24q0 9 -8 25l-119 309h-507l-139 -358h172q26 0 26 -58q0 -52 -13.5 -67.5 t-22.5 -15.5h-436q-25 0 -25 57zM355 1757v2q0 93 79 127q24 10 55 10q30 0 55 -10q26 -12 44 -30q40 -40 40 -99t-40 -99q-38 -38 -84 -38q-76 0 -112.5 39t-36.5 98zM485 653h389l-193 504zM808 1757q0 95 80 129q25 10 55 10q59 0 99 -40q38 -38 38 -99q0 -94 -82 -127 q-25 -10 -55 -10q-92 0 -125 82q-10 25 -10 55z" />
<glyph unicode="&#xc5;" horiz-adv-x="1420" d="M-14 57q0 52 24 76q8 8 36 8q74 0 97 57l509 1307q8 20 39 20q67 0 75 -20l533 -1364h117q26 0 26 -60q0 -50 -14.5 -65.5t-24.5 -15.5h-485q-25 0 -25 55q0 52 15 69t26 17q124 0 124 24q0 9 -8 25l-119 309h-507l-139 -358h172q26 0 26 -58q0 -52 -13.5 -67.5 t-22.5 -15.5h-436q-25 0 -25 57zM483 653h389l-193 504zM488 1608q0 44 16 82q16 39 44 68q62 63 157 63t157 -63q60 -61 60 -150q0 -88 -60 -148q-62 -62 -157 -63q-95 1 -157 63q-60 58 -60 148zM627 1612q0 -35 23.5 -59.5t58.5 -24.5t58.5 24.5t23.5 59.5t-23.5 59.5 t-58.5 24.5t-58.5 -24.5t-23.5 -59.5z" />
<glyph unicode="&#xc6;" horiz-adv-x="1875" d="M-37 57q0 51 16 68t25 18q48 4 76 14.5t40 40.5l495 1271q14 36 56 36h1113v-291q0 -34 -70 -34q-71 0 -71 22q0 84 -22 108q-39 41 -142 41h-439l22 -566h278q46 0 54 22q13 32 13 129q0 23 60 23q52 0 67 -14t15 -23v-428q0 -41 -72 -41t-72 27v151h-337l18 -477h284 q143 0 191 17t77.5 47t43.5 85q4 20 43 20h6q13 0 31 -3q62 -9 63 -38v-8q-14 -102 -45.5 -177.5t-46.5 -96.5h-1020q-27 0 -27 59q0 51 24 75q8 8 32 8h3q5 -1 11 -1q22 0 45 2q29 2 45 7q29 9 29 34l-17 447h-391l-194 -490h112q26 0 26 -58q0 -52 -13.5 -67.5 t-22.5 -15.5h-387q-25 0 -25 57zM526 785h326l-23 565v1q0 13 -17 13q-57 0 -77 -51z" />
<glyph unicode="&#xc7;" horiz-adv-x="1277" d="M103 730v4q0 386 194 596q180 195 478 195h3q157 0 288 -76q145 -84 145 -208q-1 -64 -45 -110q-43 -44 -108 -44t-109 44q-45 45 -45 106q0 60 22 98q-59 36 -155 36t-175.5 -39t-137.5 -111q-122 -153 -122 -398q0 -507 249 -637q79 -42 161 -42q1 0 2 1q82 0 130.5 13 t87.5 31.5t69 38.5q58 40 73 40q14 0 28 -11t26 -27q27 -35 27 -61q0 -27 -18.5 -43.5t-56.5 -41.5q-40 -26 -96 -49q-135 -55 -276 -55q-142 0 -255 44.5t-199 137.5q-185 201 -185 568zM545 -382q0 54 29 54q142 0 194 50q17 15 17 36v2q0 61 -136 61l-39 48l52 146h159 l-36 -105q115 -20 155 -92q13 -22 13 -50v-4q0 -204 -368 -204q-20 0 -30 20q-10 18 -10 38z" />
<glyph unicode="&#xc8;" horiz-adv-x="1288" d="M73 1442q0 63 26 63h1100v-291q0 -34 -70 -34q-71 0 -71 22q0 84 -22 108q-39 41 -142 41h-393v-503h254q46 0 54 22q13 32 13 129q0 23 60 23q52 0 67 -14t15 -23v-428q0 -41 -72 -41t-72 27v151h-319v-540h530l76 149q10 19 38 19q27 0 42 -3t27 -8q27 -11 27 -30 q0 -5 -1 -7l-92 -274h-1020q-27 0 -27 59q1 51 25 75q8 8 32 8h3q4 -1 9 -1q23 0 47 3q29 2 45 7q28 9 28 33v1166q0 14 -12 14h-164q-28 0 -38 52q-2 14 -3 26zM411 1833q0 109 90 147q25 11 54 11h5l273 -285q-1 -43 -21 -66q-36 -42 -77 -42z" />
<glyph unicode="&#xc9;" horiz-adv-x="1288" d="M73 1442q0 63 26 63h1100v-291q0 -34 -70 -34q-71 0 -71 22q0 84 -22 108q-39 41 -142 41h-393v-503h254q46 0 54 22q13 32 13 129q0 23 60 23q52 0 67 -14t15 -23v-428q0 -41 -72 -41t-72 27v151h-319v-540h530l76 149q10 19 38 19q27 0 42 -3t27 -8q27 -11 27 -30 q0 -5 -1 -7l-92 -274h-1020q-27 0 -27 59q1 51 25 75q8 8 32 8h3q4 -1 9 -1q23 0 47 3q29 2 45 7q28 9 28 33v1166q0 14 -12 14h-164q-28 0 -38 52q-2 14 -3 26zM584 1706l273 285h3q62 0 103 -43q43 -44 43 -115l-323 -235q-42 0 -63 24q-36 41 -36 84z" />
<glyph unicode="&#xca;" horiz-adv-x="1288" d="M73 1442q0 63 26 63h1100v-291q0 -34 -70 -34q-71 0 -71 22q0 84 -22 108q-39 41 -142 41h-393v-503h254q46 0 54 22q13 32 13 129q0 23 60 23q52 0 67 -14t15 -23v-428q0 -41 -72 -41t-72 27v151h-319v-540h530l76 149q10 19 38 19q27 0 42 -3t27 -8q27 -11 27 -30 q0 -5 -1 -7l-92 -274h-1020q-27 0 -27 59q1 51 25 75q8 8 32 8h3q4 -1 9 -1q23 0 47 3q29 2 45 7q28 9 28 33v1166q0 14 -12 14h-164q-28 0 -38 52q-2 14 -3 26zM366 1709l256 177q42 28 70 28q36 0 79 -28l256 -177q0 -63 -51 -91q-15 -8 -33 -9l-245 117l-248 -117 q-34 1 -53 23q-31 38 -31 77z" />
<glyph unicode="&#xcb;" horiz-adv-x="1288" d="M73 1442q0 63 26 63h1100v-291q0 -34 -70 -34q-71 0 -71 22q0 84 -22 108q-39 41 -142 41h-393v-503h254q46 0 54 22q13 32 13 129q0 23 60 23q52 0 67 -14t15 -23v-428q0 -41 -72 -41t-72 27v151h-319v-540h530l76 149q10 19 38 19q27 0 42 -3t27 -8q27 -11 27 -30 q0 -5 -1 -7l-92 -274h-1020q-27 0 -27 59q1 51 25 75q8 8 32 8h3q4 -1 9 -1q23 0 47 3q29 2 45 7q28 9 28 33v1166q0 14 -12 14h-164q-28 0 -38 52q-2 14 -3 26zM324 1757q0 95 80 129q24 10 54 10t56 -10q26 -12 44 -30q39 -39 39 -96v-6q0 -57 -39 -96q-38 -38 -84 -38 q-76 0 -113 39t-37 98zM777 1757q0 95 80 129q25 10 55 10q58 0 98 -40q38 -38 39 -99q0 -94 -82 -127q-25 -10 -55 -10q-92 0 -125 82q-10 25 -10 55z" />
<glyph unicode="&#xcc;" horiz-adv-x="791" d="M57 1833q0 109 90 147q25 11 54 11h5l273 -285q-1 -43 -21 -66q-36 -42 -77 -42zM74 1446q0 59 26 59h592q25 0 25 -70q0 -71 -35 -71h-180v-1223h168q26 0 26 -61q0 -48 -15 -64t-26 -16h-532q-23 0 -23 57q0 49 28 77q8 8 31 8h4q4 -1 8 -1q23 0 47 3q29 2 45 7 q28 9 28 33v1164q0 16 -13 16h-163q-29 0 -39 54q-2 14 -2 28z" />
<glyph unicode="&#xcd;" horiz-adv-x="791" d="M74 1446q0 59 26 59h592q25 0 25 -70q0 -71 -35 -71h-180v-1223h168q26 0 26 -61q0 -48 -15 -64t-26 -16h-532q-23 0 -23 57q0 49 28 77q8 8 31 8h4q4 -1 8 -1q23 0 47 3q29 2 45 7q28 9 28 33v1164q0 16 -13 16h-163q-29 0 -39 54q-2 14 -2 28zM313 1706l273 285h3 q62 0 103 -43q43 -44 43 -115l-323 -235q-42 0 -63 24q-36 41 -36 84z" />
<glyph unicode="&#xce;" horiz-adv-x="791" d="M61 1709l256 177q43 28 71 28q36 0 78 -28l256 -177q0 -63 -51 -91q-15 -8 -33 -9l-245 117l-248 -117q-34 1 -53 23q-31 38 -31 77zM74 1446q0 59 26 59h592q25 0 25 -70q0 -71 -35 -71h-180v-1223h168q26 0 26 -61q0 -48 -15 -64t-26 -16h-532q-23 0 -23 57q0 49 28 77 q8 8 31 8h4q4 -1 8 -1q23 0 47 3q29 2 45 7q28 9 28 33v1164q0 16 -13 16h-163q-29 0 -39 54q-2 14 -2 28z" />
<glyph unicode="&#xcf;" horiz-adv-x="791" d="M35 1757v2q0 93 79 127q24 10 55 10q30 0 55 -10q26 -12 44 -30q40 -40 40 -99t-40 -99q-38 -38 -84 -38q-76 0 -112.5 39t-36.5 98zM74 1446q0 59 26 59h592q25 0 25 -70q0 -71 -35 -71h-180v-1223h168q26 0 26 -61q0 -48 -15 -64t-26 -16h-532q-23 0 -23 57q0 49 28 77 q8 8 31 8h4q4 -1 8 -1q23 0 47 3q29 2 45 7q28 9 28 33v1164q0 16 -13 16h-163q-29 0 -39 54q-2 14 -2 28zM488 1757q0 95 80 129q25 10 55 10q59 0 99 -40q38 -38 38 -99q0 -94 -82 -127q-25 -10 -55 -10q-92 0 -125 82q-10 25 -10 55z" />
<glyph unicode="&#xd0;" horiz-adv-x="1527" d="M83 1442q0 63 26 63h582q395 0 569 -190q162 -177 163 -557v-3q0 -380 -229 -579q-202 -175 -503 -176h-553q-27 0 -27 57q0 46 26 76q7 8 34 8q26 0 55 3q30 2 46 7q28 9 28 33v1166q0 14 -12 14h-164q-28 0 -38 52q-2 14 -3 26zM130 694v154h635v-154h-635zM511 154 h147q214 0 364 139q168 157 168 430q0 468 -292 589q-94 39 -215 39h-172v-1197z" />
<glyph unicode="&#xd1;" horiz-adv-x="1667" d="M74 1446q0 59 26 59h348l793 -1160v1003q0 16 -13 16h-163q-29 0 -39 54q-2 14 -2 28q0 59 26 59h534q25 0 25 -70q0 -71 -35 -71h-179v-1366q0 -18 -74 -18q-71 0 -82 18l-794 1129v-986h168q27 0 27 -61q0 -50 -15 -65t-27 -15h-473q-25 0 -25 57q0 49 28 77q8 8 31 8 h4q4 -1 8 -1q23 0 47 3q29 2 45 7q28 9 28 33v1164q0 16 -13 16h-163q-29 0 -39 54q-2 14 -2 28zM421 1719q65 117 179 174q48 24 100 24q51 0 87.5 -22.5t71.5 -50t70.5 -50t69.5 -22.5q33 0 58 15.5t46 36.5t38 43t31 34q38 0 60 -21q38 -36 38 -71q-54 -121 -168 -180 q-48 -25 -96 -25q-49 0 -78.5 10t-55.5 24.5t-50 31.5q-24 18 -46 32q-54 34 -89 35h-3q-34 0 -59 -14q-27 -14 -48 -32t-36.5 -36.5t-25.5 -27.5q-39 1 -59 21q-34 34 -35 71z" />
<glyph unicode="&#xd2;" horiz-adv-x="1501" d="M102 731q0 386 192 597q179 197 480 197q303 -1 465 -215q159 -210 159 -594q0 -366 -200 -562q-176 -174 -464 -174q-132 0 -246 44q-114 45 -200 137q-186 200 -186 570zM332 823q0 -505 249 -636q80 -42 172 -42q91 0 164 30q73 31 129 99q122 149 122 455 q0 265 -122 447q-124 184 -305 184q-175 0 -289 -145q-120 -151 -120 -392zM379 1833q0 109 90 147q25 11 54 11h5l273 -285q-1 -43 -21 -66q-36 -42 -77 -42z" />
<glyph unicode="&#xd3;" horiz-adv-x="1501" d="M102 731q0 386 192 597q179 197 480 197q303 -1 465 -215q159 -210 159 -594q0 -366 -200 -562q-176 -174 -464 -174q-132 0 -246 44q-114 45 -200 137q-186 200 -186 570zM332 823q0 -505 249 -636q80 -42 172 -42q91 0 164 30q73 31 129 99q122 149 122 455 q0 265 -122 447q-124 184 -305 184q-175 0 -289 -145q-120 -151 -120 -392zM676 1706l273 285h3q62 0 103 -43q43 -44 43 -115l-323 -235q-42 0 -63 24q-36 41 -36 84z" />
<glyph unicode="&#xd4;" horiz-adv-x="1501" d="M102 731q0 386 192 597q179 197 480 197q303 -1 465 -215q159 -210 159 -594q0 -366 -200 -562q-176 -174 -464 -174q-132 0 -246 44q-114 45 -200 137q-186 200 -186 570zM332 823q0 -505 249 -636q80 -42 172 -42q91 0 164 30q73 31 129 99q122 149 122 455 q0 265 -122 447q-124 184 -305 184q-175 0 -289 -145q-120 -151 -120 -392zM425 1709l256 177q43 28 71 28q36 0 78 -28l256 -177q0 -63 -51 -91q-15 -8 -33 -9l-245 117l-248 -117q-34 1 -53 23q-31 38 -31 77z" />
<glyph unicode="&#xd5;" horiz-adv-x="1501" d="M102 731q0 386 192 597q179 197 480 197q303 -1 465 -215q159 -210 159 -594q0 -366 -200 -562q-176 -174 -464 -174q-132 0 -246 44q-114 45 -200 137q-186 200 -186 570zM327 1719q65 117 179 174q48 24 100 24q51 0 87.5 -22.5t71.5 -50t70.5 -50t69.5 -22.5 q33 0 58 15.5t46 36.5t38 43t31 34q38 0 60 -21q38 -36 38 -71q-54 -121 -168 -180q-48 -25 -96 -25q-49 0 -78.5 10t-55.5 24.5t-50 31.5q-24 18 -46 32q-54 34 -89 35h-3q-34 0 -59 -14q-27 -14 -48 -32t-36.5 -36.5t-25.5 -27.5q-39 1 -59 21q-34 34 -35 71zM332 823 q0 -505 249 -636q80 -42 172 -42q91 0 164 30q73 31 129 99q122 149 122 455q0 265 -122 447q-124 184 -305 184q-175 0 -289 -145q-120 -151 -120 -392z" />
<glyph unicode="&#xd6;" horiz-adv-x="1501" d="M102 731q0 386 192 597q179 197 480 197q303 -1 465 -215q159 -210 159 -594q0 -366 -200 -562q-176 -174 -464 -174q-132 0 -246 44q-114 45 -200 137q-186 200 -186 570zM332 823q0 -505 249 -636q80 -42 172 -42q91 0 164 30q73 31 129 99q122 149 122 455 q0 265 -122 447q-124 184 -305 184q-175 0 -289 -145q-120 -151 -120 -392zM386 1757q0 95 80 129q24 10 54 10t56 -10q26 -12 44 -30q39 -39 39 -96v-6q0 -57 -39 -96q-38 -38 -84 -38q-76 0 -113 39t-37 98zM839 1757q0 95 80 129q25 10 55 10q58 0 98 -40q38 -38 39 -99 q0 -94 -82 -127q-25 -10 -55 -10q-92 0 -125 82q-10 25 -10 55z" />
<glyph unicode="&#xd7;" horiz-adv-x="1143" d="M85 285l375 368l-367 351q0 83 68 104q19 6 38 6l369 -352l375 366q106 -6 106 -106l-370 -365l379 -362q0 -51 -27 -81t-80 -30l-383 365l-377 -371q-38 0 -62 23q-44 41 -44 84z" />
<glyph unicode="&#xd8;" horiz-adv-x="1522" d="M63 -39l1225 1545q54 26 79 26t37.5 -1t23.5 -3q26 -6 26 -22l-1206 -1545q-72 -27 -97 -27h-39q-13 2 -24 4q-25 6 -25 23zM113 727v4q0 386 192 597q179 197 480 197q303 -1 465 -215q159 -210 159 -594v-4q0 -363 -199 -558q-178 -174 -466 -174q-132 0 -246 44.5 t-200 136.5q-185 199 -185 566zM343 823q0 -505 249 -636q80 -42 172 -42q91 0 164 30q73 31 129 99q122 149 122 455q-1 265 -123 447q-124 184 -304 184q-176 0 -290 -145q-119 -150 -119 -388v-4z" />
<glyph unicode="&#xd9;" horiz-adv-x="1545" d="M41 1444q0 61 26 61h572q25 0 25 -70q0 -71 -35 -71h-160v-786q0 -341 194 -411q61 -22 141 -22t142 25.5t102 78.5q78 103 78 326v773q0 16 -13 16h-144q-29 0 -39 54q-2 14 -2 28q0 59 26 59h516q26 0 26 -64q0 -48 -13.5 -62.5t-22.5 -14.5h-169v-809 q0 -575 -519 -575q-280 0 -402 152q-112 139 -112 437v779q0 16 -13 16h-163q-28 0 -38 54q-2 14 -3 26zM447 1833q0 109 90 147q25 11 54 11h5l273 -285q-1 -43 -21 -66q-36 -42 -77 -42z" />
<glyph unicode="&#xda;" horiz-adv-x="1545" d="M41 1444q0 61 26 61h572q25 0 25 -70q0 -71 -35 -71h-160v-786q0 -341 194 -411q61 -22 141 -22t142 25.5t102 78.5q78 103 78 326v773q0 16 -13 16h-144q-29 0 -39 54q-2 14 -2 28q0 59 26 59h516q26 0 26 -64q0 -48 -13.5 -62.5t-22.5 -14.5h-169v-809 q0 -575 -519 -575q-280 0 -402 152q-112 139 -112 437v779q0 16 -13 16h-163q-28 0 -38 54q-2 14 -3 26zM758 1706l273 285h3q62 0 103 -43q43 -44 43 -115l-323 -235q-42 0 -63 24q-36 41 -36 84z" />
<glyph unicode="&#xdb;" horiz-adv-x="1545" d="M41 1444q0 61 26 61h572q25 0 25 -70q0 -71 -35 -71h-160v-786q0 -341 194 -411q61 -22 141 -22t142 25.5t102 78.5q78 103 78 326v773q0 16 -13 16h-144q-29 0 -39 54q-2 14 -2 28q0 59 26 59h516q26 0 26 -64q0 -48 -13.5 -62.5t-22.5 -14.5h-169v-809 q0 -575 -519 -575q-280 0 -402 152q-112 139 -112 437v779q0 16 -13 16h-163q-28 0 -38 54q-2 14 -3 26zM472 1709l256 177q42 28 70 28q36 0 79 -28l256 -177q0 -63 -51 -91q-15 -8 -33 -9l-245 117l-248 -117q-34 1 -53 23q-31 38 -31 77z" />
<glyph unicode="&#xdc;" horiz-adv-x="1545" d="M41 1444q0 61 26 61h572q25 0 25 -70q0 -71 -35 -71h-160v-786q0 -341 194 -411q61 -22 141 -22t142 25.5t102 78.5q78 103 78 326v773q0 16 -13 16h-144q-29 0 -39 54q-2 14 -2 28q0 59 26 59h516q26 0 26 -64q0 -48 -13.5 -62.5t-22.5 -14.5h-169v-809 q0 -575 -519 -575q-280 0 -402 152q-112 139 -112 437v779q0 16 -13 16h-163q-28 0 -38 54q-2 14 -3 26zM445 1757v2q0 93 79 127q24 10 55 10q30 0 55 -10q26 -12 44 -30q40 -40 40 -99t-40 -99q-38 -38 -84 -38q-76 0 -112.5 39t-36.5 98zM898 1757q0 95 80 129 q25 10 55 10q59 0 99 -40q38 -38 38 -99q0 -94 -82 -127q-25 -10 -55 -10q-92 0 -125 82q-10 25 -10 55z" />
<glyph unicode="&#xdd;" horiz-adv-x="1284" d="M-31 1424q0 49 14 65t25 16h493q25 0 25 -57q0 -52 -15 -68t-26 -16q-106 0 -106 -35q0 -10 6 -22l285 -572l316 629h-156q-26 0 -26 58q0 52 13.5 67.5t22.5 15.5h436q25 0 25 -57q0 -52 -24 -76q-9 -8 -37 -8q-66 0 -88 -43l-397 -762v-418h245q26 0 26 -61 q0 -48 -15 -64t-26 -16h-717q-25 0 -25 57v3q0 47 27 74q7 7 14 7h151q91 0 105 25q4 8 4 18v375l-437 805h-112q-26 0 -26 60zM622 1706l273 285h3q62 0 103 -43q43 -44 43 -115l-323 -235q-42 0 -63 24q-36 41 -36 84z" />
<glyph unicode="&#xde;" horiz-adv-x="1219" d="M74 1446q0 59 26 59h592q25 0 25 -70q0 -71 -35 -71h-180v-182h153q361 0 467 -218q35 -70 35 -164v-5q0 -461 -655 -461v-193h168q26 0 26 -61q0 -48 -15 -64t-26 -16h-530q-25 0 -25 57q0 49 28 77q8 8 31 8h4q4 -1 8 -1q23 0 47 3q29 2 45 7q28 9 28 33v1164 q0 16 -13 16h-163q-29 0 -39 54q-2 14 -2 28zM502 488q206 0 302 48q120 62 120 216q0 84 -34 138t-92 84q-101 54 -296 54v-540z" />
<glyph unicode="&#xdf;" horiz-adv-x="1191" d="M102 44l45 181v857q0 211 111 347q125 154 356 154q274 0 372 -181q36 -66 36 -145t-20.5 -127t-51 -87.5t-66.5 -73t-66 -65.5q-72 -75 -72 -127q0 -53 17 -82t45 -51q28 -20 64 -38l74 -37q96 -48 130 -90q69 -82 69 -200q-1 -136 -93 -217q-94 -82 -247 -82 q-111 0 -219 44q-78 32 -114 92q-18 30 -18 65q0 34 10 59q12 26 30 44q39 38 98 38q58 0 98 -39q39 -37 39 -96v-3q0 -27 -4 -41q32 -9 81 -9q48 0 71 10.5t39 27.5q34 35 34 83t-17 80t-45 55t-64 40l-74 34q-94 43 -129 81q-70 75 -70 187q0 142 130 270 q77 76 103.5 132.5t26.5 113.5t-19 93q-20 35 -48 55q-48 32 -123 33h-2q-74 0 -125 -35q-53 -35 -87 -88q-65 -101 -65 -229v-991l-91 -100q-11 -6 -27 -6q-56 0 -104 40q-14 12 -18 24z" />
<glyph unicode="&#xe0;" horiz-adv-x="1045" d="M69 261v3q0 153 113 239q99 76 247 76h247q0 167 -27.5 215.5t-66 67t-102.5 18.5h-102q12 -26 12 -59t-10 -58q-12 -25 -30 -43q-38 -38 -97 -39q-93 0 -127 82q-10 25 -10 62q0 36 21 68t55.5 55t78 37t88.5 22q79 14 173 14q93 0 161.5 -30t108.5 -81q69 -89 69 -252 v-517h168q27 0 27 -59q0 -26 -10 -51.5t-31 -30.5q-56 -16 -160 -16q-105 0 -117 3.5t-22 12.5q-19 17 -38 69q-122 -89 -294 -89q-154 0 -242 82q-83 76 -83 199zM210 1423q0 109 90 147q25 11 54 11h5l273 -285q0 -43 -20 -66q-36 -42 -78 -42zM271 291q0 -118 98 -148 q29 -9 61 -9q126 0 246 100v195h-218q-80 0 -118 -27q-69 -48 -69 -111z" />
<glyph unicode="&#xe1;" horiz-adv-x="1045" d="M69 261v3q0 153 113 239q99 76 247 76h247q0 167 -27.5 215.5t-66 67t-102.5 18.5h-102q12 -26 12 -59t-10 -58q-12 -25 -30 -43q-38 -38 -97 -39q-93 0 -127 82q-10 25 -10 62q0 36 21 68t55.5 55t78 37t88.5 22q79 14 173 14q93 0 161.5 -30t108.5 -81q69 -89 69 -252 v-517h168q27 0 27 -59q0 -26 -10 -51.5t-31 -30.5q-56 -16 -160 -16q-105 0 -117 3.5t-22 12.5q-19 17 -38 69q-122 -89 -294 -89q-154 0 -242 82q-83 76 -83 199zM271 291q0 -118 98 -148q29 -9 61 -9q126 0 246 100v195h-218q-80 0 -118 -27q-69 -48 -69 -111zM423 1296 l273 285h3q62 0 103 -43q43 -44 43 -115l-323 -235q-42 0 -63 24q-36 41 -36 84z" />
<glyph unicode="&#xe2;" horiz-adv-x="1045" d="M69 261v3q0 153 113 239q99 76 247 76h247q0 167 -27.5 215.5t-66 67t-102.5 18.5h-102q12 -26 12 -59t-10 -58q-12 -25 -30 -43q-38 -38 -97 -39q-93 0 -127 82q-10 25 -10 62q0 36 21 68t55.5 55t78 37t88.5 22q79 14 173 14q93 0 161.5 -30t108.5 -81q69 -89 69 -252 v-517h168q27 0 27 -59q0 -26 -10 -51.5t-31 -30.5q-56 -16 -160 -16q-105 0 -117 3.5t-22 12.5q-19 17 -38 69q-122 -89 -294 -89q-154 0 -242 82q-83 76 -83 199zM160 1300l256 177q42 28 70 28q36 0 79 -28l256 -177q0 -64 -51 -92q-15 -8 -33 -8l-245 117l-248 -117 q-34 0 -53 22q-31 38 -31 78zM271 291q0 -118 98 -148q29 -9 61 -9q126 0 246 100v195h-218q-80 0 -118 -27q-69 -48 -69 -111z" />
<glyph unicode="&#xe3;" horiz-adv-x="1045" d="M57 1309q65 117 179 174q48 24 100 24q51 0 87.5 -22.5t71.5 -50t70.5 -50t69.5 -22.5q33 0 58 15.5t46 36.5t38 43t31 34q38 0 60 -21q38 -36 38 -71q-54 -121 -168 -180q-48 -25 -96 -25q-49 0 -78.5 10t-55.5 24.5t-50 31.5q-24 18 -46 32q-54 34 -89 35h-3 q-34 0 -59 -14q-27 -14 -48 -32t-36.5 -36.5t-25.5 -27.5q-39 1 -59 21q-34 34 -35 71zM69 261v3q0 153 113 239q99 76 247 76h247q0 167 -27.5 215.5t-66 67t-102.5 18.5h-102q12 -26 12 -59t-10 -58q-12 -25 -30 -43q-38 -38 -97 -39q-93 0 -127 82q-10 25 -10 62 q0 36 21 68t55.5 55t78 37t88.5 22q79 14 173 14q93 0 161.5 -30t108.5 -81q69 -89 69 -252v-517h168q27 0 27 -59q0 -26 -10 -51.5t-31 -30.5q-56 -16 -160 -16q-105 0 -117 3.5t-22 12.5q-19 17 -38 69q-122 -89 -294 -89q-154 0 -242 82q-83 76 -83 199zM271 291 q0 -118 98 -148q29 -9 61 -9q126 0 246 100v195h-218q-80 0 -118 -27q-69 -48 -69 -111z" />
<glyph unicode="&#xe4;" horiz-adv-x="1045" d="M69 261v3q0 153 113 239q99 76 247 76h247q0 167 -27.5 215.5t-66 67t-102.5 18.5h-102q12 -26 12 -59t-10 -58q-12 -25 -30 -43q-38 -38 -97 -39q-93 0 -127 82q-10 25 -10 62q0 36 21 68t55.5 55t78 37t88.5 22q79 14 173 14q93 0 161.5 -30t108.5 -81q69 -89 69 -252 v-517h168q27 0 27 -59q0 -26 -10 -51.5t-31 -30.5q-56 -16 -160 -16q-105 0 -117 3.5t-22 12.5q-19 17 -38 69q-122 -89 -294 -89q-154 0 -242 82q-83 76 -83 199zM114 1327q0 95 80 129q24 10 54 10t56 -10q26 -12 44 -30q39 -39 39 -96v-6q0 -57 -39 -96q-38 -38 -84 -38 q-76 0 -113 39t-37 98zM271 291q0 -118 98 -148q29 -9 61 -9q126 0 246 100v195h-218q-80 0 -118 -27q-69 -48 -69 -111zM567 1327q0 95 80 129q25 10 55 10q58 0 98 -40q38 -38 39 -99q0 -94 -82 -127q-25 -10 -55 -10q-92 0 -125 82q-10 25 -10 55z" />
<glyph unicode="&#xe5;" horiz-adv-x="1045" d="M69 261v3q0 153 113 239q99 76 247 76h247q0 167 -27.5 215.5t-66 67t-102.5 18.5h-102q12 -26 12 -59t-10 -58q-12 -25 -30 -43q-38 -38 -97 -39q-93 0 -127 82q-10 25 -10 62q0 36 21 68t55.5 55t78 37t88.5 22q79 14 173 14q93 0 161.5 -30t108.5 -81q69 -89 69 -252 v-517h168q27 0 27 -59q0 -26 -10 -51.5t-31 -30.5q-56 -16 -160 -16q-105 0 -117 3.5t-22 12.5q-19 17 -38 69q-122 -89 -294 -89q-154 0 -242 82q-83 76 -83 199zM257 1331v3q0 44 15.5 82t43.5 67q62 63 158 63t158 -63q59 -60 59 -147v-6q0 -87 -59 -146 q-62 -62 -158 -62t-158 62q-59 59 -59 147zM271 291q0 -118 98 -148q29 -9 61 -9q126 0 246 100v195h-218q-80 0 -118 -27q-69 -48 -69 -111zM396 1337q0 -35 23.5 -59.5t58.5 -24.5t58.5 24.5t23.5 59.5t-23.5 59.5t-58.5 24.5t-58.5 -24.5t-23.5 -59.5z" />
<glyph unicode="&#xe6;" horiz-adv-x="1590" d="M71 261v3q0 155 113 246q103 83 247 83h202q9 81 9 98q0 187 -160 187h-18q-12 0 -27.5 -1t-30.5 -2t-26 -4q12 -26 12 -54q0 -29 -10 -54q-12 -25 -30 -43q-38 -38 -97 -39q-93 0 -127 82q-10 25 -10 62q0 36 19 68t50 55t71 37q38 14 80 22q73 14 139 14t109 -11 q44 -10 78 -30q68 -38 102 -100q110 100 258 131q48 10 119 10t144 -31.5t123 -91.5q101 -121 101 -340q0 -46 -43 -80t-110 -34h-521q11 -155 81.5 -232.5t180.5 -77.5q104 0 234 78l70 41q5 2 9 4t14 2q9 0 22.5 -11.5t24.5 -28.5q25 -39 25 -64q0 -26 -10 -33 q-183 -142 -399 -142q-217 0 -333 132l-66 -43q-136 -89 -294 -89q-154 0 -242 82q-83 76 -83 199zM273 303q0 -53 13 -83q12 -28 34 -48q42 -37 98 -37q3 -1 6 -1q51 0 84 9q35 8 65 22q52 24 107 70q-34 82 -46 208h-168q-83 0 -138 -43.5t-55 -96.5zM835 594h472 q-1 210 -117 258q-36 14 -79 15h-3q-42 0 -89 -17q-47 -18 -87 -52q-89 -78 -97 -204z" />
<glyph unicode="&#xe7;" horiz-adv-x="1004" d="M82 510q0 240 145 380q136 130 347 131q226 -1 313 -99q33 -38 33 -81t-10 -68q-12 -25 -30 -43q-40 -39 -97 -39t-97 39q-40 38 -40 76t9 74h-93q-104 0 -179 -79q-96 -101 -96 -291q0 -278 155 -352q49 -24 100 -24t92 11t80 29q40 17 76 39l71 43q4 3 14 3 q9 0 23 -11.5t26 -27.5q26 -38 26 -63t-11 -34q-191 -143 -416 -143q-209 0 -327 145q-114 140 -114 385zM330 -382q0 54 29 54q141 0 193 50q18 16 18 38q0 61 -136 61l-39 48l52 146h159l-36 -105q114 -20 154 -92q14 -24 14 -54q0 -204 -368 -204q-20 0 -30 20 q-10 18 -10 38z" />
<glyph unicode="&#xe8;" horiz-adv-x="1042" d="M81 514q0 124 41 220q40 94 108 158q138 128 341 129h3q186 0 287 -117q101 -116 101 -335q0 -47 -43 -81q-42 -33 -106 -33h-527q18 -234 163 -300q46 -21 97 -21t91 11.5t77 29t72 39.5q73 46 86 46q12 -1 26 -12q12 -12 24 -28q26 -38 27 -64v-2q0 -24 -11 -32 q-183 -142 -416 -142q-209 0 -326 146q-115 142 -115 388zM239 1423q0 109 90 147q25 11 54 11h5l273 -285q-1 -43 -21 -66q-36 -42 -77 -42zM286 605h471v4q0 198 -115 244q-36 14 -80 14t-92 -16q-48 -17 -88 -49q-89 -73 -96 -197z" />
<glyph unicode="&#xe9;" horiz-adv-x="1042" d="M81 514q0 124 41 220q40 94 108 158q138 128 341 129h3q186 0 287 -117q101 -116 101 -335q0 -47 -43 -81q-42 -33 -106 -33h-527q18 -234 163 -300q46 -21 97 -21t91 11.5t77 29t72 39.5q73 46 86 46q12 -1 26 -12q12 -12 24 -28q26 -38 27 -64v-2q0 -24 -11 -32 q-183 -142 -416 -142q-209 0 -326 146q-115 142 -115 388zM286 605h471v4q0 198 -115 244q-36 14 -80 14t-92 -16q-48 -17 -88 -49q-89 -73 -96 -197zM474 1296l273 285h3q62 0 103 -43q43 -44 43 -115l-323 -235q-42 0 -63 24q-36 41 -36 84z" />
<glyph unicode="&#xea;" horiz-adv-x="1042" d="M81 514q0 124 41 220q40 94 108 158q138 128 341 129h3q186 0 287 -117q101 -116 101 -335q0 -47 -43 -81q-42 -33 -106 -33h-527q18 -234 163 -300q46 -21 97 -21t91 11.5t77 29t72 39.5q73 46 86 46q12 -1 26 -12q12 -12 24 -28q26 -38 27 -64v-2q0 -24 -11 -32 q-183 -142 -416 -142q-209 0 -326 146q-115 142 -115 388zM214 1300l256 177q42 28 70 28q36 0 79 -28l256 -177q0 -64 -51 -92q-15 -8 -33 -8l-245 117l-248 -117q-34 0 -53 22q-31 38 -31 78zM286 605h471v4q0 198 -115 244q-36 14 -80 14t-92 -16q-48 -17 -88 -49 q-89 -73 -96 -197z" />
<glyph unicode="&#xeb;" horiz-adv-x="1042" d="M81 514q0 124 41 220q40 94 108 158q138 128 341 129h3q186 0 287 -117q101 -116 101 -335q0 -47 -43 -81q-42 -33 -106 -33h-527q18 -234 163 -300q46 -21 97 -21t91 11.5t77 29t72 39.5q73 46 86 46q12 -1 26 -12q12 -12 24 -28q26 -38 27 -64v-2q0 -24 -11 -32 q-183 -142 -416 -142q-209 0 -326 146q-115 142 -115 388zM206 1327q0 95 80 129q24 10 54 10t56 -10q26 -12 44 -30q39 -39 39 -96v-6q0 -57 -39 -96q-38 -38 -84 -38q-76 0 -113 39t-37 98zM286 605h471v4q0 198 -115 244q-36 14 -80 14t-92 -16q-48 -17 -88 -49 q-89 -73 -96 -197zM659 1327q0 95 80 129q25 10 55 10q58 0 98 -40q38 -38 39 -99q0 -94 -82 -127q-25 -10 -55 -10q-92 0 -125 82q-10 25 -10 55z" />
<glyph unicode="&#xec;" horiz-adv-x="662" d="M22 1423q0 109 90 147q25 11 54 11h5l273 -285q0 -43 -20 -66q-36 -42 -78 -42zM34 927q0 46 27 56.5t71 17.5t92 11q92 8 177 9h1q42 0 44 -85v-795h168q26 0 26 -61q0 -48 -15 -64t-26 -16h-510q-26 0 -26 61q0 48 15 64t26 16h10q117 0 132 23q5 7 5 17v666h-176 q-29 1 -39 51q-2 14 -2 29z" />
<glyph unicode="&#xed;" horiz-adv-x="662" d="M34 927q0 46 27 56.5t71 17.5t92 11q92 8 177 9h1q42 0 44 -85v-795h168q26 0 26 -61q0 -48 -15 -64t-26 -16h-510q-26 0 -26 61q0 48 15 64t26 16h10q117 0 132 23q5 7 5 17v666h-176q-29 1 -39 51q-2 14 -2 29zM257 1296l273 285h3q62 0 103 -43q43 -44 43 -115 l-323 -235q-42 0 -63 24q-36 41 -36 84z" />
<glyph unicode="&#xee;" horiz-adv-x="662" d="M-25 1300l256 177q43 28 71 28q36 0 78 -28l256 -177q0 -64 -51 -92q-15 -8 -33 -8l-245 117l-248 -117q-34 0 -53 22q-31 38 -31 78zM34 927q0 46 27 56.5t71 17.5t92 11q92 8 177 9h1q42 0 44 -85v-795h168q26 0 26 -61q0 -48 -15 -64t-26 -16h-510q-26 0 -26 61 q0 48 15 64t26 16h10q117 0 132 23q5 7 5 17v666h-176q-29 1 -39 51q-2 14 -2 29z" />
<glyph unicode="&#xef;" horiz-adv-x="662" d="M-44 1327q0 95 80 129q24 10 54 10t56 -10q26 -12 44 -30q39 -39 39 -96v-6q0 -57 -39 -96q-38 -38 -84 -38q-76 0 -113 39t-37 98zM34 927q0 46 27 56.5t71 17.5t92 11q92 8 177 9h1q42 0 44 -85v-795h168q26 0 26 -61q0 -48 -15 -64t-26 -16h-510q-26 0 -26 61 q0 48 15 64t26 16h10q117 0 132 23q5 7 5 17v666h-176q-29 1 -39 51q-2 14 -2 29zM409 1327q0 95 80 129q25 10 55 10q58 0 98 -40q38 -38 39 -99q0 -94 -82 -127q-25 -10 -55 -10q-92 0 -125 82q-10 25 -10 55z" />
<glyph unicode="&#xf0;" horiz-adv-x="1113" d="M78 510q0 212 146 356q138 136 313 136q109 0 185 -49q-56 140 -214 279l-201 -163l-86 105l180 143q-96 69 -197 118q-25 12 -25 47q0 34 16 58q29 43 58 43q23 0 125 -57.5t161 -98.5l196 156q2 0 13 -15l69 -85l-170 -138q280 -237 343 -591q21 -118 21 -249t-37 -229 t-103 -164q-132 -132 -358 -132q-203 0 -321 152q-114 146 -114 378zM283 507q0 -273 155 -349q48 -24 112 -24q63 0 111.5 29.5t80.5 80.5q64 102 64 262q0 342 -270 342q-96 0 -168 -82q-84 -97 -85 -256v-3z" />
<glyph unicode="&#xf1;" horiz-adv-x="1290" d="M34 925q0 46 26.5 56.5t67.5 18.5t86 12q90 10 135 10h4q44 -1 53 -10q10 -10 14 -26q5 -17 5 -71v-19q151 84 275 115q40 10 102 10q61 0 123 -26.5t98 -76.5q64 -88 64 -280v-497h155q27 0 27 -61q0 -48 -15 -64t-26 -16h-455q-26 0 -26 61q0 48 15 64t26 16 q104 0 104 43v297q0 194 -22 254.5t-56.5 86t-93.5 25.5q-111 0 -274 -129v-577h168q26 0 26 -61q0 -48 -15 -64t-26 -16h-510q-26 0 -26 61q0 48 15 64t26 16h10q115 0 131 23q6 8 6 20v663h-176q-31 1 -39 49q-2 14 -2 29zM229 1309q65 117 179 174q48 24 100 24 q51 0 87.5 -22.5t71.5 -50t70.5 -50t69.5 -22.5q33 0 58 15.5t46 36.5t38 43t31 34q38 0 60 -21q38 -36 38 -71q-54 -121 -168 -180q-48 -25 -96 -25q-49 0 -78.5 10t-55.5 24.5t-50 31.5q-24 18 -46 32q-54 34 -89 35h-3q-34 0 -59 -14q-27 -14 -48 -32t-36.5 -36.5 t-25.5 -27.5q-39 1 -59 21q-34 34 -35 71z" />
<glyph unicode="&#xf2;" horiz-adv-x="1093" d="M80 512q0 246 152 384q138 125 348 125h3q196 0 315 -149q114 -142 114 -368q0 -252 -140 -392q-132 -132 -355 -132q-107 0 -188 40t-137 112q-112 145 -112 380zM244 1423q0 109 90 147q25 11 54 11h5l273 -285q0 -43 -20 -66q-36 -42 -78 -42zM285 517q0 -102 19 -173 q20 -70 54 -116q69 -94 191 -94q126 0 195 110q63 100 63 262q-1 271 -159 340q-48 21 -97 21q-50 0 -95.5 -15t-83.5 -55t-62.5 -109.5t-24.5 -170.5z" />
<glyph unicode="&#xf3;" horiz-adv-x="1093" d="M80 512q0 246 152 384q138 125 348 125h3q196 0 315 -149q114 -142 114 -368q0 -252 -140 -392q-132 -132 -355 -132q-107 0 -188 40t-137 112q-112 145 -112 380zM285 517q0 -102 19 -173q20 -70 54 -116q69 -94 191 -94q126 0 195 110q63 100 63 262q-1 271 -159 340 q-48 21 -97 21q-50 0 -95.5 -15t-83.5 -55t-62.5 -109.5t-24.5 -170.5zM480 1296l273 285h3q62 0 103 -43q43 -44 43 -115l-323 -235q-42 0 -63 24q-36 41 -36 84z" />
<glyph unicode="&#xf4;" horiz-adv-x="1093" d="M80 512q0 246 152 384q138 125 348 125h3q196 0 315 -149q114 -142 114 -368q0 -252 -140 -392q-132 -132 -355 -132q-107 0 -188 40t-137 112q-112 145 -112 380zM247 1300l256 177q43 28 71 28q36 0 78 -28l256 -177q0 -64 -51 -92q-15 -8 -33 -8l-245 117l-248 -117 q-34 0 -53 22q-31 38 -31 78zM285 517q0 -102 19 -173q20 -70 54 -116q69 -94 191 -94q126 0 195 110q63 100 63 262q-1 271 -159 340q-48 21 -97 21q-50 0 -95.5 -15t-83.5 -55t-62.5 -109.5t-24.5 -170.5z" />
<glyph unicode="&#xf5;" horiz-adv-x="1093" d="M80 512q0 246 152 384q138 125 348 125h3q196 0 315 -149q114 -142 114 -368q0 -252 -140 -392q-132 -132 -355 -132q-107 0 -188 40t-137 112q-112 145 -112 380zM146 1309q74 121 180 174q48 24 99 24t87.5 -22.5t72 -50t71 -50t69.5 -22.5q33 0 57.5 15.5t45.5 36.5 t38.5 43t31.5 34q38 0 60 -21q38 -36 38 -71q-54 -121 -168 -180q-48 -25 -97 -25t-78.5 10t-55.5 24.5t-49.5 32t-45.5 31.5q-54 34 -90 35h-3q-34 0 -59 -14q-27 -14 -48 -32t-36 -36.5t-26 -27.5q-37 1 -59 21q-35 34 -35 71zM285 517q0 -102 19 -173q20 -70 54 -116 q69 -94 191 -94q126 0 195 110q63 100 63 262q-1 271 -159 340q-48 21 -97 21q-50 0 -95.5 -15t-83.5 -55t-62.5 -109.5t-24.5 -170.5z" />
<glyph unicode="&#xf6;" horiz-adv-x="1093" d="M80 512q0 246 152 384q138 125 348 125h3q196 0 315 -149q114 -142 114 -368q0 -252 -140 -392q-132 -132 -355 -132q-107 0 -188 40t-137 112q-112 145 -112 380zM181 1327v2q0 93 79 127q24 10 55 10q30 0 55 -10q26 -12 44 -30q40 -40 40 -99t-40 -99q-38 -38 -84 -38 q-76 0 -112.5 39t-36.5 98zM285 517q0 -102 19 -173q20 -70 54 -116q69 -94 191 -94q126 0 195 110q63 100 63 262q-1 271 -159 340q-48 21 -97 21q-50 0 -95.5 -15t-83.5 -55t-62.5 -109.5t-24.5 -170.5zM634 1327q0 95 80 129q25 10 55 10q59 0 99 -40q38 -38 38 -99 q0 -94 -82 -127q-25 -10 -55 -10q-92 0 -125 82q-10 25 -10 55z" />
<glyph unicode="&#xf7;" horiz-adv-x="1065" d="M71 651q0 10 3 22q2 13 7 25q12 27 30 27h843q26 0 36 -50q2 -13 3 -24q0 -47 -14.5 -63.5t-24.5 -16.5h-842q-28 0 -38 52q-2 13 -2 25q-1 1 -1 3zM395 324q0 59 38 99t83 40q44 0 69 -10.5t43 -29.5q38 -40 39 -99q0 -93 -82 -126q-25 -10 -54 -10q-30 0 -55 10t-43 28 q-38 38 -38 98zM395 957q0 45 10 70t28 43q38 38 83 38q44 0 69 -10t43 -28q38 -37 39 -82v-5q0 -42 -10 -66q-10 -25 -28.5 -43t-43.5 -28t-69 -10q-45 0 -83 37.5t-38 83.5z" />
<glyph unicode="&#xf8;" horiz-adv-x="1095" d="M40 -39l145 192q-102 146 -102 359q1 247 153 385q138 125 347 125q120 0 215 -58l59 78q17 22 50 23.5t44 1.5q10 0 25 -1q16 0 30 -2q34 -6 34 -22l-133 -178q108 -143 108 -360q0 -247 -152 -392q-138 -132 -347 -132q-126 0 -221 64l-62 -83q-19 -27 -111 -27 q-82 0 -82 27zM288 510q0 -128 16 -199l398 527q-56 33 -127 33t-117 -16q-45 -17 -83 -57q-87 -93 -87 -288zM390 171q58 -37 143 -37t133.5 29.5t80.5 80.5q63 100 63 246t-20 217z" />
<glyph unicode="&#xf9;" horiz-adv-x="1234" d="M21 923q0 50 20 55q168 43 307 43q44 0 46 -80v-530q0 -195 100 -233q30 -12 75 -12q44 0 84.5 10t72.5 24q30 15 54 32l43 32v583h-137q-41 0 -41 74q0 47 26.5 57.5t64.5 18.5q38 7 79 13q78 10 125 11h3q43 0 53 -11q12 -10 16 -28q6 -25 6 -88v-753h168q27 0 27 -65 q0 -70 -41 -76q-102 -16 -182 -16t-94 8t-24 22q-16 22 -38 82q-159 -116 -287 -116q-252 0 -324 202q-24 67 -24 156v509h-141q-37 0 -37 76zM293 1423q0 109 90 147q25 11 54 11h5l273 -285q-1 -43 -21 -66q-36 -42 -77 -42z" />
<glyph unicode="&#xfa;" horiz-adv-x="1234" d="M21 923q0 50 20 55q168 43 307 43q44 0 46 -80v-530q0 -195 100 -233q30 -12 75 -12q44 0 84.5 10t72.5 24q30 15 54 32l43 32v583h-137q-41 0 -41 74q0 47 26.5 57.5t64.5 18.5q38 7 79 13q78 10 125 11h3q43 0 53 -11q12 -10 16 -28q6 -25 6 -88v-753h168q27 0 27 -65 q0 -70 -41 -76q-102 -16 -182 -16t-94 8t-24 22q-16 22 -38 82q-159 -116 -287 -116q-252 0 -324 202q-24 67 -24 156v509h-141q-37 0 -37 76zM528 1296l273 285h3q62 0 103 -43q43 -44 43 -115l-323 -235q-42 0 -63 24q-36 41 -36 84z" />
<glyph unicode="&#xfb;" horiz-adv-x="1234" d="M21 923q0 50 20 55q168 43 307 43q44 0 46 -80v-530q0 -195 100 -233q30 -12 75 -12q44 0 84.5 10t72.5 24q30 15 54 32l43 32v583h-137q-41 0 -41 74q0 47 26.5 57.5t64.5 18.5q38 7 79 13q78 10 125 11h3q43 0 53 -11q12 -10 16 -28q6 -25 6 -88v-753h168q27 0 27 -65 q0 -70 -41 -76q-102 -16 -182 -16t-94 8t-24 22q-16 22 -38 82q-159 -116 -287 -116q-252 0 -324 202q-24 67 -24 156v509h-141q-37 0 -37 76zM267 1300l256 177q43 28 71 28q36 0 78 -28l256 -177q0 -64 -51 -92q-15 -8 -33 -8l-245 117l-248 -117q-34 0 -53 22 q-31 38 -31 78z" />
<glyph unicode="&#xfc;" horiz-adv-x="1234" d="M21 923q0 50 20 55q168 43 307 43q44 0 46 -80v-530q0 -195 100 -233q30 -12 75 -12q44 0 84.5 10t72.5 24q30 15 54 32l43 32v583h-137q-41 0 -41 74q0 47 26.5 57.5t64.5 18.5q38 7 79 13q78 10 125 11h3q43 0 53 -11q12 -10 16 -28q6 -25 6 -88v-753h168q27 0 27 -65 q0 -70 -41 -76q-102 -16 -182 -16t-94 8t-24 22q-16 22 -38 82q-159 -116 -287 -116q-252 0 -324 202q-24 67 -24 156v509h-141q-37 0 -37 76zM227 1327v2q0 93 79 127q24 10 55 10q30 0 55 -10q26 -12 44 -30q40 -40 40 -99t-40 -99q-38 -38 -84 -38q-76 0 -112.5 39 t-36.5 98zM680 1327q0 95 80 129q25 10 55 10q59 0 99 -40q38 -38 38 -99q0 -94 -82 -127q-25 -10 -55 -10q-92 0 -125 82q-10 25 -10 55z" />
<glyph unicode="&#xfd;" horiz-adv-x="1099" d="M6 920q0 49 14 65t25 16h434q25 0 25 -57q0 -51 -15.5 -67.5t-25.5 -16.5q-88 0 -88 -43l203 -594l237 637h-131q-26 0 -26 58q0 52 13.5 67.5t22.5 15.5h375q25 0 25 -57q0 -52 -24 -76q-8 -8 -24 -8q-17 0 -32 -2q-14 -2 -24 -8q-16 -9 -25 -33l-422 -1077 q-32 -83 -104 -131.5t-177 -48.5q-140 0 -196 92q-20 34 -20 73q-1 2 -1 3q0 37 11 62q10 26 28 44q40 40 87 40h2q48 -1 74 -14q25 -14 41 -36q28 -41 29 -110q32 0 55.5 36t41 77t30 77.5t21 64.5t11.5 37l-332 854h-112q-26 0 -26 60zM557 1296l273 285h3q62 0 103 -43 q43 -44 43 -115l-323 -235q-42 0 -63 24q-36 41 -36 84z" />
<glyph unicode="&#xfe;" horiz-adv-x="1093" d="M-77 1489q0 45 27 56t71 19q45 7 93 11q97 8 176 8q42 0 45 -85q1 -25 1 -52v-508q146 83 250 83t179 -35.5t130 -101.5q116 -140 116 -378q0 -248 -137 -388q-129 -132 -338 -132q-82 0 -170 45q-20 10 -30 14v-342h222q27 0 27 -61q0 -48 -15 -64t-26 -16h-565 q-27 0 -27 61q0 48 15 64t26 16q125 0 142 23q6 8 6 20v1663h-177q-28 1 -38 51q-2 14 -3 29zM336 195q69 -55 188 -55q190 0 256 182q26 72 26 181q0 108 -25 173.5t-63 103.5q-66 67 -160 67q-88 0 -168 -51q-30 -19 -54 -47v-554z" />
<glyph unicode="&#xff;" horiz-adv-x="1099" d="M6 920q0 49 14 65t25 16h434q25 0 25 -57q0 -51 -15.5 -67.5t-25.5 -16.5q-88 0 -88 -43l203 -594l237 637h-131q-26 0 -26 58q0 52 13.5 67.5t22.5 15.5h375q25 0 25 -57q0 -52 -24 -76q-8 -8 -24 -8q-17 0 -32 -2q-14 -2 -24 -8q-16 -9 -25 -33l-422 -1077 q-32 -83 -104 -131.5t-177 -48.5q-140 0 -196 92q-20 34 -20 73q-1 2 -1 3q0 37 11 62q10 26 28 44q40 40 87 40h2q48 -1 74 -14q25 -14 41 -36q28 -41 29 -110q32 0 55.5 36t41 77t30 77.5t21 64.5t11.5 37l-332 854h-112q-26 0 -26 60zM230 1327q0 95 80 129q24 10 54 10 t56 -10q26 -12 44 -30q39 -39 39 -96v-6q0 -57 -39 -96q-38 -38 -84 -38q-76 0 -113 39t-37 98zM683 1327q0 95 80 129q25 10 55 10q58 0 98 -40q38 -38 39 -99q0 -94 -82 -127q-25 -10 -55 -10q-92 0 -125 82q-10 25 -10 55z" />
<glyph unicode="&#x152;" horiz-adv-x="2042" d="M102 731q0 386 192 597q179 197 480 197q89 0 171 -20h1008v-291q0 -34 -70 -34q-71 0 -71 22q0 84 -22 108q-39 41 -142 41h-393v-503h254q46 0 54 22q13 32 13 129q0 23 60 23q52 0 67 -14t15 -23v-428q0 -41 -72 -41t-72 27v151h-319v-540h530l76 149q10 19 38 19 q27 0 42 -3t27 -8q27 -11 27 -30q0 -5 -1 -7l-92 -274h-992q-88 -20 -198 -20t-224 44q-114 45 -200 137q-186 200 -186 570zM332 823q0 -505 249 -636q80 -42 182 -42q192 0 281 76v1032q-105 107 -303 107q-175 0 -289 -145q-120 -151 -120 -392z" />
<glyph unicode="&#x153;" horiz-adv-x="1769" d="M80 512q0 246 152 384q138 125 351 125t333 -174q138 174 383 174h3q186 0 287 -117q101 -116 101 -335q0 -47 -43 -81q-42 -33 -106 -33h-527q18 -234 163 -300q46 -21 97 -21t91 11.5t77 29t72 39.5q73 46 86 46q12 -1 26 -12q12 -12 24 -28q26 -38 27 -64v-2 q0 -24 -11 -32q-183 -142 -412 -142t-349 170q-132 -170 -390 -170q-205 0 -323 152q-112 145 -112 380zM285 517q0 -102 19 -173q20 -70 54 -116q69 -94 191 -94q126 0 195 110q63 100 63 262q-1 271 -159 340q-48 21 -97 21q-50 0 -95.5 -15t-83.5 -55t-62.5 -109.5 t-24.5 -170.5zM1014 605h471v4q0 198 -115 244q-36 14 -80 14t-92 -16q-48 -17 -88 -49q-89 -73 -96 -197z" />
<glyph unicode="&#x178;" horiz-adv-x="1284" d="M280 1784q0 95 80 129q24 10 54 10t56 -10q26 -12 44 -30q39 -39 39 -96v-6q0 -57 -39 -96q-38 -38 -84 -38q-76 0 -113 39t-37 98zM733 1784q0 95 80 129q25 10 55 10q58 0 98 -40q38 -38 39 -99q0 -94 -82 -127q-25 -10 -55 -10q-92 0 -125 82q-10 25 -10 55zM-31 1424 q0 49 14 65t25 16h493q25 0 25 -57q0 -52 -15 -68t-26 -16q-106 0 -106 -35q0 -10 6 -22l285 -572l316 629h-156q-26 0 -26 58q0 52 13.5 67.5t22.5 15.5h436q25 0 25 -57q0 -52 -24 -76q-9 -8 -37 -8q-66 0 -88 -43l-397 -762v-418h245q26 0 26 -61q0 -48 -15 -64t-26 -16 h-717q-25 0 -25 57v3q0 47 27 74q7 7 14 7h151q91 0 105 25q4 8 4 18v375l-437 805h-112q-26 0 -26 60z" />
<glyph unicode="&#x2c6;" horiz-adv-x="1045" d="M192 1300l256 177q42 28 70 28q36 0 79 -28l256 -177q0 -64 -51 -92q-15 -8 -33 -8l-245 117l-248 -117q-34 0 -53 22q-31 38 -31 78z" />
<glyph unicode="&#x2dc;" horiz-adv-x="1233" d="M192 1309q66 117 180 174q48 24 99 24t87.5 -22.5t71.5 -50t70.5 -50t69.5 -22.5q33 0 58 15.5t46 36.5t38 43t31 34q38 0 60 -21q38 -36 38 -71q-53 -121 -167 -180q-48 -25 -97 -25t-78.5 10t-55.5 24.5t-49.5 32t-45.5 31.5q-54 34 -90 35h-3q-34 0 -59 -14 q-27 -14 -48 -32t-36.5 -36.5t-25.5 -27.5q-40 1 -60 21q-34 34 -34 71z" />
<glyph unicode="&#x2000;" horiz-adv-x="995" />
<glyph unicode="&#x2001;" horiz-adv-x="1991" />
<glyph unicode="&#x2002;" horiz-adv-x="995" />
<glyph unicode="&#x2003;" horiz-adv-x="1991" />
<glyph unicode="&#x2004;" horiz-adv-x="663" />
<glyph unicode="&#x2005;" horiz-adv-x="497" />
<glyph unicode="&#x2006;" horiz-adv-x="331" />
<glyph unicode="&#x2007;" horiz-adv-x="331" />
<glyph unicode="&#x2008;" horiz-adv-x="248" />
<glyph unicode="&#x2009;" horiz-adv-x="398" />
<glyph unicode="&#x200a;" horiz-adv-x="110" />
<glyph unicode="&#x2010;" horiz-adv-x="750" d="M112 600q0 12 2.5 27t7.5 29q12 33 31 33h447q26 0 36 -59q2 -14 2 -26q0 -52 -14.5 -71.5t-24.5 -19.5h-447q-28 0 -38 61q-2 14 -2 26z" />
<glyph unicode="&#x2011;" horiz-adv-x="750" d="M112 600q0 12 2.5 27t7.5 29q12 33 31 33h447q26 0 36 -59q2 -14 2 -26q0 -52 -14.5 -71.5t-24.5 -19.5h-447q-28 0 -38 61q-2 14 -2 26z" />
<glyph unicode="&#x2012;" horiz-adv-x="750" d="M112 600q0 12 2.5 27t7.5 29q12 33 31 33h447q26 0 36 -59q2 -14 2 -26q0 -52 -14.5 -71.5t-24.5 -19.5h-447q-28 0 -38 61q-2 14 -2 26z" />
<glyph unicode="&#x2013;" horiz-adv-x="1103" d="M113 615q0 10 3 22q2 13 7 25q12 27 30 27h798q27 0 37 -50q2 -13 2 -24q0 -45 -14.5 -62.5t-24.5 -17.5h-797q-28 0 -38 52q-2 13 -2 25q-1 1 -1 3z" />
<glyph unicode="&#x2014;" horiz-adv-x="1979" d="M113 614q0 10 3 22q2 13 7 25q12 28 31 28h1673q27 0 37 -51q2 -13 2 -24q0 -48 -14.5 -63.5t-24.5 -15.5h-1673q-28 0 -38 51q-2 13 -2 25q-1 1 -1 3z" />
<glyph unicode="&#x2018;" horiz-adv-x="443" d="M66 1200q0 176 265 383q29 0 44.5 -16t15.5 -43q-106 -119 -106 -195q74 -39 74 -129q-1 -60 -43 -100q-41 -40 -85 -40q-1 0 -1 1q-45 0 -72 11q-28 12 -48 30q-44 40 -44 98z" />
<glyph unicode="&#x2019;" horiz-adv-x="447" d="M80 1120q106 119 106 195q-74 39 -74 129q0 60 42 100q41 40 86 40h1q45 -1 72 -12q27 -12 47 -30q44 -40 45 -98q0 -176 -265 -383q-29 0 -44.5 16t-15.5 43z" />
<glyph unicode="&#x201a;" horiz-adv-x="505" d="M74 -211q106 119 106 195q-74 39 -74 129q0 59 42 99t87 40t72 -11t47 -29q44 -40 45 -99q0 -176 -265 -383q-29 0 -44.5 16t-15.5 43z" />
<glyph unicode="&#x201c;" horiz-adv-x="842" d="M66 1200q0 176 265 383q29 0 44.5 -16t15.5 -43q-106 -119 -106 -195q74 -39 74 -129q-1 -60 -43 -100q-41 -40 -85 -40q-1 0 -1 1q-45 0 -72 11q-28 12 -48 30q-44 40 -44 98zM465 1200q0 176 265 383q29 0 44.5 -16t15.5 -43q-106 -119 -106 -195q74 -39 74 -129 q0 -60 -42 -100q-41 -40 -86 -40l-1 1q-45 0 -72 11q-27 12 -47 30q-44 40 -45 98z" />
<glyph unicode="&#x201d;" horiz-adv-x="845" d="M80 1120q106 119 106 195q-74 39 -74 129q0 60 42 100q41 40 86 40h1q45 -1 72 -12q27 -12 47 -30q44 -40 45 -98q0 -176 -265 -383q-29 0 -44.5 16t-15.5 43zM479 1120q106 119 106 195q-74 39 -74 129q1 60 43 100q41 40 85 40h2q44 -1 71 -12q28 -12 48 -30 q44 -40 44 -98q0 -176 -265 -383q-29 0 -44.5 16t-15.5 43z" />
<glyph unicode="&#x201e;" horiz-adv-x="904" d="M74 -211q106 119 106 195q-74 39 -74 129q0 59 42 99t87 40t72 -11t47 -29q44 -40 45 -99q0 -176 -265 -383q-29 0 -44.5 16t-15.5 43zM473 -211q106 119 106 195q-74 39 -74 129q1 59 43 99t87 40q44 0 71 -11q28 -11 48 -29q44 -40 44 -99q0 -176 -265 -383 q-29 0 -44.5 16t-15.5 43z" />
<glyph unicode="&#x2022;" horiz-adv-x="713" d="M100 770q0 112 73 186q72 74 181 74q110 0 185 -74t75 -186q0 -110 -75.5 -183t-184.5 -73q-54 0 -100.5 19.5t-80.5 53.5q-73 73 -73 183z" />
<glyph unicode="&#x2026;" horiz-adv-x="1461" d="M1080 115q0 95 84 129q26 10 55 10t54 -10q25 -12 43 -30q39 -40 39 -99q0 -92 -82 -125q-25 -10 -54 -10q-30 0 -55.5 10t-43.5 28q-40 38 -40 97zM593 115q0 95 84 129q26 10 55 10t54 -10q25 -12 43 -30q39 -40 39 -99q0 -92 -82 -125q-25 -10 -54 -10q-30 0 -55.5 10 t-43.5 28q-40 38 -40 97zM106 115q0 95 84 129q26 10 55 10t54 -10q25 -12 43 -30q39 -40 39 -99q0 -92 -82 -125q-25 -10 -54 -10q-30 0 -55.5 10t-43.5 28q-40 38 -40 97z" />
<glyph unicode="&#x202f;" horiz-adv-x="398" />
<glyph unicode="&#x2039;" horiz-adv-x="686" d="M43 502q0 69 40 100l421 333q31 0 52 -22q37 -39 37 -73l-306 -305l306 -351q0 -34 -20 -55q-36 -39 -68 -39l-422 339q-40 33 -40 73z" />
<glyph unicode="&#x203a;" horiz-adv-x="686" d="M93 185l305 305l-305 351q0 34 19 56q34 38 68 38l422 -340q41 -33 41 -72q0 -66 -42 -100l-420 -333q-30 0 -51 22q-37 39 -37 73z" />
<glyph unicode="&#x205f;" horiz-adv-x="497" />
<glyph unicode="&#x20ac;" d="M27 642q0 10 3 22q2 12 7 24q12 28 31 28h133v18q0 58 3 112h-88q-28 0 -38 52q-2 13 -3 24q0 46 15 62t26 16h103q80 525 516 525q157 0 283 -76q140 -85 141 -208q-1 -64 -45 -110q-43 -44 -108 -44t-109 44q-45 45 -45 106q0 60 22 98q-59 36 -159 36 q-101 0 -169 -94.5t-96 -276.5h307q27 0 37 -51q2 -13 2 -24t-2 -25q-4 -14 -8 -26q-10 -28 -29 -28h-321q-2 -22 -2 -44v-86h278q26 0 36 -50q2 -13 3 -24v-4q0 -10 -2 -22q-3 -14 -7 -26q-10 -28 -30 -28h-268q35 -300 186 -387q52 -30 104 -30q51 0 86 7t69 19 q62 22 95.5 41t45.5 19q11 0 23.5 -9.5t22.5 -23.5q24 -31 24 -57q0 -27 -18.5 -43.5t-49.5 -37.5q-32 -21 -74 -39q-97 -41 -222 -41t-217 50q-91 49 -155 131q-118 152 -152 401h-144q-28 0 -38 52q-2 13 -2 25q-1 1 -1 3z" />
<glyph unicode="&#x2122;" horiz-adv-x="3244" d="M1349 1446q0 59 26 59h298q28 0 41 -29l549 -1156l481 1165q9 20 26 20h375q25 0 25 -70q0 -71 -35 -71h-180v-1223h168q26 0 26 -61q0 -48 -15 -64t-26 -16h-530q-25 0 -25 57q0 49 28 77q8 8 31 8h4q4 -1 8 -1q23 0 47 3q29 2 45 7q28 9 28 33v935l-449 -1119 q-12 -12 -40 -12q-54 0 -75 12l-460 1023v-882h167q26 0 26 -61q0 -48 -15 -64t-26 -16h-472q-25 0 -25 57q0 49 28 77q8 8 31 8h4q4 -1 8 -1q23 0 47 3q29 2 45 7q28 9 28 33v1164q0 16 -13 16h-163q-29 0 -39 54q-2 14 -2 28zM18 1228v4l38 273h1161l38 -273v-4 q0 -36 -55 -48q-12 -3 -25 -3h-6q-39 0 -48 26l-44 148h-335v-1210h168q27 0 27 -67q0 -43 -15.5 -58.5t-25.5 -15.5h-531q-24 0 -24 57q0 51 27 77q8 8 32 8h3q4 -1 9 -1q23 0 47 3q29 2 45 7q27 8 27 33v1167h-335l-44 -148q-9 -26 -50 -26q-50 1 -76 31q-8 10 -8 20z" />
<glyph unicode="&#xe000;" horiz-adv-x="1000" d="M0 1000h1000v-1000h-1000v1000z" />
<glyph unicode="&#xfb01;" horiz-adv-x="1454" d="M826 927q0 46 27 56.5t71 17.5t92 11q92 8 177 9h1q42 0 44 -85v-795h168q26 0 26 -61q0 -48 -15 -64t-26 -16h-510q-26 0 -26 61q0 48 15 64t26 16h10q117 0 132 23q5 7 5 17v666h-176q-29 1 -39 51q-2 14 -2 29zM982 1409q0 95 83 129q25 10 54 10q58 0 97.5 -39.5 t39.5 -99.5q0 -59 -40 -99q-38 -38 -97 -38q-93 0 -127 82q-10 25 -10 55zM64 847q0 110 13.5 132t29.5 22h10q116 0 132 23q6 8 6 20v126q0 288 179 379q66 34 135 34t107 -7t68 -26q70 -43 70 -133q0 -59 -40 -99q-38 -38 -97 -38q-93 0 -127 82q-10 25 -10 55v32h-1 q-81 0 -87 -169q-2 -48 -2 -96v-183h269q25 0 25 -59q0 -58 -24 -86q-7 -9 -19 -9h-251v-706h226q27 0 27 -61q0 -48 -15 -64t-26 -16h-569q-27 0 -27 61q0 48 15 64t26 16h10q116 0 132 23q6 8 6 20v663h-191z" />
<glyph unicode="&#xfb02;" horiz-adv-x="1413" d="M785 1489q0 46 27 56.5t71 17.5q45 7 93 11q92 8 176 9q42 0 44 -85q0 -25 1 -52v-1305h168q26 0 26 -61q0 -48 -15 -64t-26 -16h-510q-26 0 -26 61q0 48 15 64t26 16h10q116 0 131 23q6 8 6 20v1225h-176q-28 1 -38 51q-2 14 -3 29zM64 847q0 110 13.5 132t29.5 22h10 q116 0 132 23q6 8 6 20v126q0 288 179 379q66 34 135 34t107 -7t68 -26q70 -43 70 -133q0 -59 -40 -99q-38 -38 -97 -38q-93 0 -127 82q-10 25 -10 55v32h-1q-81 0 -87 -169q-2 -48 -2 -96v-183h269q25 0 25 -59q0 -58 -24 -86q-7 -9 -19 -9h-251v-706h226q27 0 27 -61 q0 -48 -15 -64t-26 -16h-569q-27 0 -27 61q0 48 15 64t26 16h10q116 0 132 23q6 8 6 20v663h-191z" />
<glyph unicode="&#xfb03;" horiz-adv-x="2246" d="M1618 927q0 46 27 56.5t71 17.5t92 11q92 8 177 9h1q42 0 44 -85v-795h168q26 0 26 -61q0 -48 -15 -64t-26 -16h-510q-26 0 -26 61q0 48 15 64t26 16h10q117 0 132 23q5 7 5 17v666h-176q-29 1 -39 51q-2 14 -2 29zM1774 1409q0 95 83 129q25 10 54 10q58 0 97.5 -39.5 t39.5 -99.5q0 -59 -40 -99q-38 -38 -97 -38q-93 0 -127 82q-10 25 -10 55zM856 847q0 110 13.5 132t29.5 22h10q116 0 132 23q6 8 6 20v126q0 288 179 379q66 34 135 34t107 -7t68 -26q70 -43 70 -133q0 -59 -40 -99q-38 -38 -97 -38q-93 0 -127 82q-10 25 -10 55v32h-1 q-81 0 -87 -169q-2 -48 -2 -96v-183h269q25 0 25 -59q0 -58 -24 -86q-7 -9 -19 -9h-251v-706h226q27 0 27 -61q0 -48 -15 -64t-26 -16h-569q-27 0 -27 61q0 48 15 64t26 16h10q116 0 132 23q6 8 6 20v663h-191zM64 847q0 110 13.5 132t29.5 22h10q116 0 132 23q6 8 6 20v126 q0 288 179 379q66 34 135 34t107 -7t68 -26q70 -43 70 -133q0 -59 -40 -99q-38 -38 -97 -38q-93 0 -127 82q-10 25 -10 55v32h-1q-81 0 -87 -169q-2 -48 -2 -96v-183h269q25 0 25 -59q0 -58 -24 -86q-7 -9 -19 -9h-251v-706h226q27 0 27 -61q0 -48 -15 -64t-26 -16h-569 q-27 0 -27 61q0 48 15 64t26 16h10q116 0 132 23q6 8 6 20v663h-191z" />
<glyph unicode="&#xfb04;" horiz-adv-x="2205" d="M1577 1489q0 46 27 56.5t71 17.5q45 7 93 11q92 8 176 9q42 0 44 -85q0 -25 1 -52v-1305h168q26 0 26 -61q0 -48 -15 -64t-26 -16h-510q-26 0 -26 61q0 48 15 64t26 16h10q116 0 131 23q6 8 6 20v1225h-176q-28 1 -38 51q-2 14 -3 29zM856 847q0 110 13.5 132t29.5 22h10 q116 0 132 23q6 8 6 20v126q0 288 179 379q66 34 135 34t107 -7t68 -26q70 -43 70 -133q0 -59 -40 -99q-38 -38 -97 -38q-93 0 -127 82q-10 25 -10 55v32h-1q-81 0 -87 -169q-2 -48 -2 -96v-183h269q25 0 25 -59q0 -58 -24 -86q-7 -9 -19 -9h-251v-706h226q27 0 27 -61 q0 -48 -15 -64t-26 -16h-569q-27 0 -27 61q0 48 15 64t26 16h10q116 0 132 23q6 8 6 20v663h-191zM64 847q0 110 13.5 132t29.5 22h10q116 0 132 23q6 8 6 20v126q0 288 179 379q66 34 135 34t107 -7t68 -26q70 -43 70 -133q0 -59 -40 -99q-38 -38 -97 -38q-93 0 -127 82 q-10 25 -10 55v32h-1q-81 0 -87 -169q-2 -48 -2 -96v-183h269q25 0 25 -59q0 -58 -24 -86q-7 -9 -19 -9h-251v-706h226q27 0 27 -61q0 -48 -15 -64t-26 -16h-569q-27 0 -27 61q0 48 15 64t26 16h10q116 0 132 23q6 8 6 20v663h-191z" />
</font>
</defs>
</svg>
